<?xml version="1.0" standalone="no"?>
<!DOCTYPE svg PUBLIC "-//W3C//DTD SVG 1.1//EN" "http://www.w3.org/Graphics/SVG/1.1/DTD/svg11.dtd" >
<svg xmlns="http://www.w3.org/2000/svg" xmlns:xlink="http://www.w3.org/1999/xlink" version="1.1">
<metadata>
Created by FontForge 20200314 at Tue Jan 24 15:04:38 2017
 By Unknown
Copyright (c) 2016 by David Einwaller. All rights reserved.
</metadata>
<defs>
<font id="MorionBeta-Regular" horiz-adv-x="0" >
  <font-face 
    font-family="Morion Beta"
    font-weight="400"
    font-stretch="normal"
    units-per-em="1000"
    panose-1="0 0 0 0 0 0 0 0 0 0"
    ascent="750"
    descent="-250"
    x-height="460"
    cap-height="735"
    bbox="-714 -278 1145 937"
    underline-thickness="50"
    underline-position="-250"
    unicode-range="U+0020-25FC"
  />
<missing-glyph horiz-adv-x="378" 
 />
    <glyph glyph-name="f_b" unicode="fb" horiz-adv-x="941" 
d="M662 -14q-83 0 -137 51v-37h-137v10l56 76v477q0 82 -31.5 125t-91.5 43q-54 0 -85.5 -36.5t-31.5 -98.5v-136h142v-32h-142v-342l50 -77v-9h-182v9l50 77v342h-84v32h84v68q0 123 51.5 172t162.5 49q149 0 194 -67v-259q20 23 60 37t80 14q101 0 164 -66t63 -172
q0 -108 -63.5 -179t-171.5 -71zM652 23q156 0 156 195q0 93 -45.5 147.5t-122.5 54.5q-35 0 -65.5 -15t-47.5 -40v-284q40 -58 125 -58z" />
    <glyph glyph-name="f_h" unicode="fh" horiz-adv-x="919" 
d="M72 0v9l50 77v342h-84v32h84v68q0 123 51.5 172t162.5 49q147 0 190 -61v-291q49 77 145 77q24 0 49 -8t51.5 -25.5t43 -53t16.5 -83.5v-218l48 -77v-9h-178v9l48 77v206q0 136 -105 136q-50 0 -84 -34t-34 -81v-227l48 -77v-9h-178v9l48 77v477q0 82 -31.5 125t-91.5 43
q-54 0 -85.5 -36.5t-31.5 -98.5v-136h142v-32h-142v-342l50 -77v-9h-182z" />
    <glyph glyph-name="f_j" unicode="fj" horiz-adv-x="553" 
d="M331 -210v14q23 5 39 22.5t23.5 35t11 48t4 44.5t0.5 40v304q0 58 -23 94t-46 36h-136v-342l50 -77v-9h-182v9l50 77v342h-84v32h84v68q0 221 176 221q179 0 196 -129l-57 -63l-62 62q6 19 6 35q0 40 -23.5 58.5t-54.5 18.5q-99 0 -99 -135v-136h287v-455
q0 -98 -37.5 -156.5t-122.5 -58.5z" />
    <glyph glyph-name="fi.liga" unicode="fi" horiz-adv-x="572" 
d="M72 0v9l50 77v343h-84v31h84v65q0 221 167 221q46 0 85.5 -11.5t70 -41.5t34.5 -76l-57 -63l-62 62q6 21 6 37q0 39 -24 57t-54 18q-38 0 -61 -28t-23 -107v-133h282v-374l51 -76v-10h-186v10l53 76v212q0 58 -18.5 94.5t-40.5 36.5h-141v-343l50 -77v-9h-182z" />
    <glyph glyph-name="fl.liga" unicode="fl" horiz-adv-x="626" 
d="M72 0v9l50 77v343h-84v31h84v65q0 118 60 169.5t151 51.5q106 0 191 -24v-636l55 -76v-10h-192v10l55 76v507q0 55 -33 94.5t-83 39.5q-59 0 -90.5 -36t-31.5 -98v-133h142v-31h-142v-343l50 -77v-9h-182z" />
    <glyph glyph-name="ff.liga" unicode="ff" horiz-adv-x="688" 
d="M69 0v10l53 76v343h-84v32h84v64q0 221 167 221q73 0 106.5 -17t55.5 -50l-82 -66h-22q5 22 5 37q0 36 -18 57t-46 21q-38 0 -61 -28t-23 -107v-132h245v64q0 221 167 221q73 0 106.5 -17t55.5 -50l-82 -66h-22q5 22 5 37q0 36 -18 57t-46 21q-38 0 -61 -28t-23 -107
v-132h142v-32h-142v-343l54 -76v-10h-189v10l53 76v343h-245v-343l54 -76v-10h-189z" />
    <glyph glyph-name="ffi.liga" unicode="ffi" horiz-adv-x="916" 
d="M69 0v10l53 76v342h-84v32h84v65q0 221 167 221q73 0 106.5 -17t55.5 -50l-82 -66h-22q5 22 5 37q0 36 -18 57t-46 21q-38 0 -61 -28t-23 -107v-133h245v65q0 61 15.5 105.5t43 69t59 35.5t69.5 11q46 0 85.5 -11.5t70 -41.5t34.5 -76l-57 -63l-62 62q6 21 6 37
q0 40 -28 59.5t-63 15.5q-91 -11 -91 -135v-133h298v-374l52 -76v-10h-175v10l53 76v212q0 59 -18.5 95t-40.5 36h-169v-343l54 -76v-10h-189v10l53 76v342h-245v-342l54 -76v-10h-189z" />
    <glyph glyph-name="ffl.liga" unicode="ffl" horiz-adv-x="953" 
d="M69 0v10l53 76v343h-84v32h84v64q0 221 167 221q73 0 106.5 -17t55.5 -50l-82 -66h-22q5 22 5 37q0 36 -18 57t-46 21q-38 0 -61 -28t-23 -107v-132h245v64q0 61 17.5 106t47 69t63 35t71.5 11q91 0 201 -13v-647l57 -76v-10h-191v10l55 76v515q-6 56 -35.5 91t-77.5 35
h-10q-21 -1 -37.5 -6t-36.5 -18t-31 -41t-11 -69v-132h141v-32h-141v-343q10 -14 30 -40.5t26 -35.5v-10h-190v10l52 76v343h-245v-343l54 -76v-10h-189z" />
    <glyph glyph-name=".notdef" horiz-adv-x="378" 
 />
    <glyph glyph-name=".null" 
 />
    <glyph glyph-name="nonmarkingreturn" horiz-adv-x="333" 
 />
    <glyph glyph-name="space" unicode=" " horiz-adv-x="279" 
 />
    <glyph glyph-name="exclam" unicode="!" horiz-adv-x="248" 
d="M106 188q0 301 -47 503l65 57l65 -57q-48 -228 -48 -503h-35zM124 -17l-65 66l65 67l65 -67z" />
    <glyph glyph-name="quotedbl" unicode="&#x22;" horiz-adv-x="344" 
d="M93 477q0 45 -15 96t-30 80l-14 29l65 67l65 -67l-16 -32t-26 -74t-16 -99h-13zM239 477q0 45 -14.5 96t-29.5 80l-15 29l65 67l65 -67l-16 -32t-26 -74t-16 -99h-13z" />
    <glyph glyph-name="numbersign" unicode="#" horiz-adv-x="633" 
d="M150 -17v245h-129v35h136l40 151h-137v36h149l65 234h8v-234h118l66 234h7v-234h136v-36h-140l-45 -151h146v-35h-152l-70 -245h-7v245h-118l-66 -245h-7zM233 263h115l46 151h-120z" />
    <glyph glyph-name="dollar" unicode="$" horiz-adv-x="598" 
d="M550 207q0 -100 -64 -157t-171 -63v-100h-40v99q-87 5 -132 45l-71 -31h-12v196h29q8 -42 26 -74.5t37.5 -50.5t44.5 -29.5t42.5 -15.5t35.5 -5v318q-48 20 -76 35t-61.5 41t-49.5 62.5t-16 84.5q0 49 18.5 86t49.5 57.5t64.5 30.5t70.5 12v110h40v-110q40 -2 76 -11.5
t76.5 -39t60.5 -75.5l-95 -66h-11q18 60 -14 106.5t-93 55.5v-280q110 -47 148 -73q87 -61 87 -158zM148 598q0 -50 32.5 -82t94.5 -61v265q-55 -4 -91 -37t-36 -85zM315 21q68 5 112 38.5t44 94.5q0 63 -40 99.5t-116 68.5v-301z" />
    <glyph glyph-name="percent" unicode="%" horiz-adv-x="724" 
d="M191 454q-42 0 -79.5 33t-37.5 104t37.5 104t79.5 33q44 0 81.5 -33t37.5 -104t-37.5 -104t-81.5 -33zM84 0l481 716h63l-481 -716h-63zM191 478q27 0 42.5 28.5t15.5 83.5q0 113 -58 113q-25 0 -40.5 -29t-14.5 -84q-1 -55 14.5 -83.5t40.5 -28.5zM531 -14
q-42 0 -79.5 33t-37.5 104t37.5 104t79.5 33q44 0 81.5 -33t37.5 -104t-37.5 -104t-81.5 -33zM531 10q27 0 42.5 28.5t15.5 83.5q0 113 -58 113q-25 0 -40.5 -29t-14.5 -84q-1 -55 14.5 -83.5t40.5 -28.5z" />
    <glyph glyph-name="ampersand" unicode="&#x26;" horiz-adv-x="705" 
d="M650 93h20q-30 -107 -107 -107q-54 0 -104 62q-89 -62 -188 -62q-103 0 -168 56.5t-65 146.5q0 40 12 72t37.5 57t48.5 41t60 36q-45 58 -69 105t-24 99q0 57 45.5 103.5t138.5 46.5q79 0 124.5 -40t45.5 -103q0 -34 -10.5 -62t-23 -46t-40 -38.5t-43.5 -29.5t-51 -28
l207 -274q58 57 85 132l-55 78v12h116q-24 -148 -124 -251q39 -49 72 -49q27 0 60 43zM183 614q0 -65 83 -181q55 33 85 71t30 95q0 49 -27 86t-79 37q-17 0 -36 -7t-37.5 -33t-18.5 -68zM126 196q0 -71 45.5 -114t118.5 -43q76 0 144 41l-213 282q-95 -63 -95 -166z" />
    <glyph glyph-name="quotesingle" unicode="'" horiz-adv-x="164" 
d="M68 476q1 6 2 17t1 40.5t-4 54.5t-17.5 52t-34.5 41l65 67l65 -67l-61 -205h-16z" />
    <glyph glyph-name="parenleft" unicode="(" horiz-adv-x="339" 
d="M287 -93q-19 10 -43 28.5t-58.5 57t-61 85t-46 117.5t-19.5 149t19.5 149t46 117t61 85t58.5 57.5t43 28.5l6 -10l13 -23q-2 0 -17.5 -13t-40.5 -44.5t-48 -75t-40 -116t-17 -155.5q0 -81 16 -151.5t38 -113.5t47.5 -76.5t40 -46.5t20.5 -17h1l-13 -22z" />
    <glyph glyph-name="parenright" unicode=")" horiz-adv-x="339" 
d="M52 -93l-6 10l-13 22h1q61 45 106 137q56 115 56 268q0 83 -17 155.5t-40 116t-48 75t-40.5 44.5t-17.5 13l13 23l6 10q19 -10 43 -28.5t58.5 -57.5t61 -85t46 -117t19.5 -149t-19.5 -149t-46 -117.5t-61 -85t-58.5 -57t-43 -28.5z" />
    <glyph glyph-name="asterisk" unicode="*" horiz-adv-x="372" 
d="M175 404l-16 119l-111 -45l-5 8l-5 10l94 73l-94 74l10 18l111 -45l16 119h22l16 -119l111 45l10 -18l-94 -74l94 -73l-5 -10l-5 -8l-111 45l-16 -119h-22z" />
    <glyph glyph-name="plus" unicode="+" horiz-adv-x="402" 
d="M175 146v101h-101v53h101v100h53v-100h100v-53h-100v-101h-53z" />
    <glyph glyph-name="comma" unicode="," horiz-adv-x="223" 
d="M101 -162q1 6 2 17t1 40.5t-4 54.5t-17.5 52t-34.5 41l65 67l65 -67l-61 -205h-16z" />
    <glyph glyph-name="hyphen" unicode="-" horiz-adv-x="354" 
d="M50 247v53h254v-53h-254z" />
    <glyph glyph-name="period" unicode="." horiz-adv-x="210" 
d="M105 -14l-65 66l65 67l65 -67z" />
    <glyph glyph-name="slash" unicode="/" horiz-adv-x="478" 
d="M8 -57l388 854h68l-388 -854h-68z" />
    <glyph glyph-name="zero" unicode="0" horiz-adv-x="711" 
d="M363 -15q-40 0 -80.5 11t-83.5 38.5t-75 69t-53 109t-21 151.5q0 85 20.5 154t52.5 111t73 70t79 39t74 11q40 0 80 -11t82.5 -38.5t75 -69t53.5 -109.5t21 -152q0 -85 -20.5 -153.5t-52.5 -110.5t-73 -70t-79 -39t-73 -11zM374 17q88 0 136 86t48 241q0 171 -59.5 272.5
t-160.5 101.5q-88 0 -136.5 -85.5t-48.5 -239.5q0 -172 60 -274t161 -102z" />
    <glyph glyph-name="one" unicode="1" horiz-adv-x="374" 
d="M85 0v9l62 84v560h-107v11l196 84v-655l58 -84v-9h-209z" />
    <glyph glyph-name="two" unicode="2" horiz-adv-x="534" 
d="M64 0l-28 65q94 101 143 157t101.5 126.5t74 126.5t21.5 110q0 133 -121 133q-45 0 -72.5 -24t-27.5 -63q0 -55 50 -85l-77 -75q-65 45 -65 124q0 69 54.5 111.5t143.5 42.5q94 0 151 -45t57 -118q0 -44 -18 -91.5t-43.5 -89.5t-77.5 -103t-94 -105.5t-120 -123.5h358
l34 -64v-9h-444z" />
    <glyph glyph-name="three" unicode="3" horiz-adv-x="573" 
d="M281 -14q-85 0 -153 34.5t-98 94.5l105 62q-8 -55 32 -109t116 -54q66 0 107 47.5t41 131.5q0 189 -220 189v25q79 7 126 56t50 120q2 57 -27 97t-89 40q-46 0 -74 -24t-28 -63t24 -61l-88 -61q-28 37 -28 84q0 26 9.5 51t30.5 49t61.5 39t95.5 15q90 0 147 -42t57 -120
q0 -73 -53 -125.5t-129 -60.5q107 2 169 -51.5t62 -150.5q0 -54 -23 -96.5t-59.5 -67t-78.5 -37t-85 -12.5z" />
    <glyph glyph-name="four" unicode="4" horiz-adv-x="574" 
d="M267 0v10l55 84v112h-300v30l321 511l68 -41v-445h137v-55h-137v-112l52 -84v-10h-196zM78 261h244v383z" />
    <glyph glyph-name="five" unicode="5" horiz-adv-x="596" 
d="M282 -14q-87 0 -155.5 39t-90.5 100l101 52q0 -74 39.5 -117.5t107.5 -43.5q77 0 119.5 52t42.5 147q0 96 -47.5 152.5t-129.5 56.5q-86 0 -143 -54l-37 22l41 343h340l16 -74h-325l-32 -242q21 24 66.5 39.5t94.5 15.5q115 0 186.5 -65.5t71.5 -172.5q0 -115 -72 -182.5
t-194 -67.5z" />
    <glyph glyph-name="six" unicode="6" horiz-adv-x="644" 
d="M353 480q113 0 180 -65t67 -176q0 -110 -78.5 -181.5t-188.5 -71.5q-129 0 -206 103t-77 269q0 179 83 285t217 106q136 0 194 -80l-88 -55q-8 43 -38.5 75.5t-74.5 32.5q-170 0 -185 -336q65 94 195 94zM342 24q72 0 114.5 58t42.5 153q0 90 -46.5 142.5t-125.5 52.5
q-58 0 -102.5 -30t-67.5 -84q1 -129 52.5 -210.5t132.5 -81.5z" />
    <glyph glyph-name="seven" unicode="7" horiz-adv-x="510" 
d="M103 0q0 46 34 125t61 125t71 117l171 294h-337l-68 -67h-9l43 141h403l12 -92l-174 -310q-28 -48 -57 -151t-29 -182h-121z" />
    <glyph glyph-name="eight" unicode="8" horiz-adv-x="587" 
d="M348 420q43 -17 70.5 -32t57.5 -40.5t44.5 -61.5t14.5 -84q0 -101 -68.5 -159t-171.5 -58q-107 0 -175 51.5t-68 142.5q0 77 40 126t114 84q-59 30 -92 70.5t-33 106.5q0 84 55.5 133t150.5 49q91 0 151.5 -41t60.5 -121q0 -105 -151 -166zM144 596q0 -34 12.5 -60
t39.5 -45t50 -30t65 -27q56 28 80 63.5t24 88.5q0 63 -36 98t-102 35q-60 0 -96.5 -34t-36.5 -89zM303 16q74 0 117.5 42.5t43.5 116.5q0 30 -11 55t-23.5 40.5t-41.5 33t-45.5 25.5t-55.5 24t-53 22q-101 -61 -101 -182q0 -83 45.5 -130t124.5 -47z" />
    <glyph glyph-name="nine" unicode="9" horiz-adv-x="605" 
d="M288 748q130 0 198.5 -85t68.5 -249q0 -205 -73.5 -316.5t-211.5 -111.5q-72 0 -128 25.5t-85 72.5l87 70q6 -64 41 -99.5t92 -35.5q86 0 127.5 91.5t46.5 278.5q-64 -80 -170 -80q-109 0 -173 58.5t-64 158.5q0 98 68 160t176 62zM293 362q110 0 158 89
q-3 137 -43.5 200t-120.5 63q-68 0 -109 -47.5t-41 -125.5q0 -83 42.5 -131t113.5 -48z" />
    <glyph glyph-name="colon" unicode=":" horiz-adv-x="250" 
d="M124 285l-65 66l65 67l65 -67zM123 -14l-65 66l65 67l65 -67z" />
    <glyph glyph-name="semicolon" unicode=";" horiz-adv-x="252" 
d="M125 248l-65 66l65 67l65 -67zM113 -162q1 6 2 17t1 40.5t-4 54.5t-17.5 52t-34.5 41l65 67l65 -67l-61 -205h-16z" />
    <glyph glyph-name="less" unicode="&#x3c;" horiz-adv-x="446" 
d="M383 33l-326 226v17l326 226v-70l-205 -165l205 -158v-76z" />
    <glyph glyph-name="equal" unicode="=" horiz-adv-x="408" 
d="M74 308v41h244v-41h-244zM74 217v41h244v-41h-244z" />
    <glyph glyph-name="greater" unicode="&#x3e;" horiz-adv-x="440" 
d="M57 33v76l205 158l-205 165v70l326 -226v-17z" />
    <glyph glyph-name="question" unicode="?" horiz-adv-x="465" 
d="M189 187q0 68 16 119t38.5 81.5t44.5 57t38 61t16 77.5q0 61 -34 96.5t-90 35.5q-49 0 -79.5 -26.5t-30.5 -69.5q0 -49 37 -70l-33 -104q-38 21 -59.5 56.5t-21.5 77.5q0 75 53 122t138 47q97 0 149.5 -45t52.5 -123q0 -46 -21 -84t-51 -65.5t-60 -58t-51 -77.5t-21 -108
h-31zM205 -17l-65 66l65 67l65 -67z" />
    <glyph glyph-name="at" unicode="@" horiz-adv-x="881" 
d="M461 -124q-159 0 -270 106t-111 263t111.5 268t269.5 111q151 0 245.5 -86.5t94.5 -230.5q0 -168 -103 -221q-62 -32 -125 -10q-39 13 -43 36q-41 -44 -112 -44t-112 54t-29 127q8 76 61 126.5t130 50.5q58 0 104 -33l43 13h16l-38 -229q-11 -55 37 -55q46 0 70.5 49
t24.5 136q0 128 -73 197t-191 69q-116 0 -202.5 -89t-86.5 -239q0 -153 85 -235.5t204 -82.5q186 0 302 127l15 -14q-54 -81 -138.5 -122.5t-178.5 -41.5zM433 117q61 0 98 42l33 202h1q-25 30 -85 30q-54 0 -89 -38.5t-44 -94.5q-9 -58 14 -99.5t72 -41.5z" />
    <glyph glyph-name="A" unicode="A" horiz-adv-x="693" 
d="M619 93l56 -84v-9h-202v9l49 84l-71 172h-258l-68 -172l63 -84v-9h-176v9l66 84l219 547l-30 74l92 27zM206 298h232l-119 288z" />
    <glyph glyph-name="B" unicode="B" horiz-adv-x="667" 
d="M375 404q109 0 177.5 -56.5t68.5 -145.5q0 -99 -68 -157.5t-184 -58.5q-108 0 -161 70v-56h-147v9l57 84v550l-68 83v9h240q133 0 194 -40t61 -124q0 -61 -46 -106t-124 -61zM290 709h-80v-303h70q82 0 131 42.5t49 120.5q0 140 -170 140zM361 14q80 0 122.5 47t42.5 129
q0 91 -53 140.5t-148 49.5h-115v-281q44 -85 151 -85z" />
    <glyph glyph-name="C" unicode="C" horiz-adv-x="760" 
d="M412 -14q-163 0 -265.5 106t-102.5 275q0 172 101.5 277t262.5 105q41 0 85 -10t92 -31.5t88 -64.5t59 -100l-92 -84q-4 40 -19.5 82.5t-43 85t-74.5 69.5t-105 27q-119 0 -190 -85.5t-71 -229.5q0 -164 80.5 -266t209.5 -102q88 0 150 44t83 109h28v-193h-14l-59 43
q-72 -57 -203 -57z" />
    <glyph glyph-name="D" unicode="D" horiz-adv-x="720" 
d="M292 735q186 0 285 -100.5t99 -284.5q0 -95 -27.5 -168t-73 -114.5t-97.5 -61.5t-108 -20q-118 0 -159 71v-57h-145v9l58 84v550l-82 82v10h250zM354 27q100 0 161.5 75t61.5 248q0 155 -74.5 257t-210.5 102h-78v-610q21 -35 58.5 -53.5t81.5 -18.5z" />
    <glyph glyph-name="E" unicode="E" horiz-adv-x="654" 
d="M524 147l90 -97q-40 -33 -81 -42.5t-128 -7.5h-357v9l63 83v550l-77 84v9h498l36 -161h-16l-125 135h-226v-287h165l72 51h10v-152h-10l-72 69h-165v-364h173q64 0 101 38t49 83z" />
    <glyph glyph-name="F" unicode="F" horiz-adv-x="596" 
d="M530 735l36 -161h-16l-125 135h-224v-286h138l71 51h10v-153h-10l-71 68h-138v-296l60 -84v-9h-210v9l60 84v550l-69 83v9h488z" />
    <glyph glyph-name="G" unicode="G" horiz-adv-x="782" 
d="M501 334v11h220v-345h-14l-53 70q-89 -84 -238 -84q-159 0 -265.5 109.5t-106.5 280.5q0 165 101.5 269t262.5 104q41 0 85 -10t92 -31.5t88 -64.5t59 -100l-92 -84q-3 31 -12.5 64.5t-30 70t-47.5 64.5t-69 46.5t-91 18.5q-116 0 -184.5 -85t-68.5 -230
q0 -160 80.5 -260.5t204.5 -100.5q111 0 169.5 59.5t58.5 146.5z" />
    <glyph glyph-name="H" unicode="H" horiz-adv-x="752" 
d="M642 93l60 -83v-10h-210v10l60 83v268h-352v-268l60 -83v-10h-210v10l60 83v552l-56 81v9h202v-9l-56 -81v-252h352v252l-56 81v9h202v-9l-56 -81v-552z" />
    <glyph glyph-name="I" unicode="I" horiz-adv-x="313" 
d="M56 0v10l56 83v552l-39 80v10h167v-10l-38 -80v-552l55 -83v-10h-201z" />
    <glyph glyph-name="J" unicode="J" horiz-adv-x="538" 
d="M224 -14q-89 0 -145.5 44t-56.5 114q0 52 31 92l98 -65q-43 -16 -43 -65q0 -42 31 -67.5t81 -25.5q119 0 119 153v478l-102 82v9h249v-9l-57 -82v-453q0 -26 -3.5 -49.5t-16 -53.5t-34 -51.5t-60.5 -36t-91 -14.5z" />
    <glyph glyph-name="K" unicode="K" horiz-adv-x="651" 
d="M338 423l281 -455h-15l-125 56l-236 383l-43 -39v-275l60 -84v-9h-210v9l60 84v550l-56 82v10h202v-10l-56 -82v-233l258 236l-40 80v9h190v-10l-102 -82l-245 -220h77z" />
    <glyph glyph-name="L" unicode="L" horiz-adv-x="581" 
d="M53 0v9l53 83v553l-56 79v11h202v-11l-56 -79v-619h136q64 0 102 40.5t45 83.5l90 -67q-7 -25 -23 -41t-68 -29t-140 -13h-285z" />
    <glyph glyph-name="M" unicode="M" horiz-adv-x="876" 
d="M396 -7l-177 567l-80 -467l62 -84v-9h-165v9l62 84l93 544l-28 80l90 23l165 -548l12 -40l125 491l-16 75l92 22l140 -647l57 -84v-9h-206v9l55 84l-104 477l-151 -577h-26z" />
    <glyph glyph-name="N" unicode="N" horiz-adv-x="720" 
d="M582 -6l-434 596v-497l62 -84v-9h-168v9l62 84v549l-62 84v9h113l419 -566v475l-60 82v9h164v-9l-60 -82v-650h-36z" />
    <glyph glyph-name="O" unicode="O" horiz-adv-x="855" 
d="M427 -14q-171 0 -277 107.5t-106 273.5q0 167 105.5 274.5t277.5 107.5q171 0 277.5 -107t106.5 -275q0 -165 -107 -273t-277 -108zM443 12q120 0 192.5 84.5t72.5 218.5q0 168 -90 287.5t-210 119.5q-122 0 -192 -86t-70 -218q0 -165 87.5 -285.5t209.5 -120.5z" />
    <glyph glyph-name="P" unicode="P" horiz-adv-x="613" 
d="M283 735q34 0 66 -3t74 -15.5t72.5 -32t52 -57t21.5 -87.5q0 -89 -65 -138.5t-178 -49.5q-65 0 -120 29v-288l60 -84v-9h-210v9l60 84v550l-66 83v9h233zM316 382q19 0 38.5 3.5t43 14.5t41 28t29.5 47.5t12 69.5q0 164 -195 164h-79v-297q51 -30 110 -30z" />
    <glyph glyph-name="Q" unicode="Q" horiz-adv-x="869" 
d="M817 15l-115 -59q5 23 5 45q0 44 -14 81q-105 -96 -266 -96q-172 0 -277.5 107t-105.5 275q0 167 106.5 274t276.5 107q171 0 277.5 -107.5t106.5 -273.5q0 -138 -74 -237q54 -47 80 -116zM146 420q0 -180 85.5 -293t221.5 -113q37 0 58 4q-50 1 -87.5 22.5t-37.5 64.5
t45 70t108 27q76 0 142 -33q27 68 27 149q0 100 -36.5 192t-107 152t-157.5 60q-120 0 -190.5 -85t-70.5 -217zM530 45q85 0 133 88q-44 52 -123 52q-42 0 -69.5 -20t-27.5 -54q0 -30 24 -48t63 -18z" />
    <glyph glyph-name="R" unicode="R" horiz-adv-x="615" 
d="M366 347l237 -374h-16l-119 49l-231 357h-31v-286l60 -84v-9h-210v9l60 84v550l-66 83v9h209q32 0 62.5 -3t70.5 -14.5t68.5 -30t49 -53t20.5 -80.5q0 -44 -20.5 -77.5t-48.5 -51t-66.5 -28.5t-65 -14t-53.5 -4zM206 709v-304h66q172 0 172 154q0 150 -187 150h-51z" />
    <glyph glyph-name="S" unicode="S" horiz-adv-x="598" 
d="M290 -14q-96 0 -147 45l-71 -31h-12v196h29q8 -42 24.5 -74t38.5 -50t42.5 -29.5t44 -16t34 -5.5t21.5 -1q75 0 126 34t51 100q0 44 -22 77t-57 53.5t-77.5 38t-85.5 37t-78 43.5t-57 64.5t-22 94.5q0 43 14.5 76.5t37 53.5t53 33.5t59 18.5t58.5 5q29 0 58 -5t64 -17
t65 -39t47 -66l-95 -66h-11q20 67 -21 115.5t-113 48.5q-60 0 -100 -33.5t-40 -88.5q0 -53 41.5 -89.5t100.5 -60.5t118 -50.5t100.5 -74.5t41.5 -116q0 -105 -71.5 -163t-188.5 -58z" />
    <glyph glyph-name="T" unicode="T" horiz-adv-x="646" 
d="M216 0v9l62 84v616h-119l-125 -135h-16l32 161h546l32 -161h-16l-125 135h-119v-616l62 -84v-9h-214z" />
    <glyph glyph-name="U" unicode="U" horiz-adv-x="711" 
d="M366 -14q-64 0 -121 19.5t-98 67t-41 114.5v457l-56 83v8h200v-8l-54 -83v-454q0 -74 53 -115.5t126 -41.5q50 0 86.5 16t55 41.5t26.5 50t8 48.5v455l-60 83v8h172v-8l-60 -83v-448q0 -22 -4.5 -45.5t-20 -54t-40 -54t-69.5 -40t-103 -16.5z" />
    <glyph glyph-name="V" unicode="V" horiz-adv-x="677" 
d="M334 -14l-253 658l-57 82v9h210v-9l-52 -82l198 -511l181 511l-56 82v9h154v-9l-57 -82l-238 -658h-30z" />
    <glyph glyph-name="W" unicode="W" horiz-adv-x="930" 
d="M306 -14l-235 659l-49 81v9h189v-9l-39 -81l165 -483l106 391l-54 173v9h161v-9l-25 -93l130 -470l158 482l-51 81v9h150v-9l-54 -81l-223 -659h-21l-147 495l-137 -495h-24z" />
    <glyph glyph-name="X" unicode="X" horiz-adv-x="645" 
d="M561 93l58 -84v-9h-220v9l54 84l-157 248l-162 -248l60 -84v-9h-174v9l65 84l186 289l-166 263l-58 81v9h212v-9l-46 -81l120 -191l126 191l-46 81v9h156v-9l-59 -81l-153 -228z" />
    <glyph glyph-name="Y" unicode="Y" horiz-adv-x="572" 
d="M182 0v9l60 84v253l-220 380v9h199v-9l-48 -81l138 -244l146 243l-56 82v9h151v-9l-220 -363v-270l60 -84v-9h-210z" />
    <glyph glyph-name="Z" unicode="Z" horiz-adv-x="630" 
d="M30 0v10l388 699h-245l-129 -127h-14l42 153h463v-9l-390 -700h225q30 0 53.5 10.5t37.5 26t22.5 34.5t11 34.5t1.5 27.5l108 -93q-48 -66 -215 -66h-359z" />
    <glyph glyph-name="bracketleft" unicode="[" horiz-adv-x="249" 
d="M52 -124v872h183v-32h-104v-809h103v-31h-182z" />
    <glyph glyph-name="backslash" unicode="\" horiz-adv-x="478" 
d="M396 -57l-388 854h68l388 -854h-68z" />
    <glyph glyph-name="bracketright" unicode="]" horiz-adv-x="249" 
d="M14 -124v31h103v809h-104v32h183v-872h-182z" />
    <glyph glyph-name="asciicircum" unicode="^" horiz-adv-x="408" 
d="M16 544v9l169 196h38l169 -196v-9h-51l-137 126l-140 -126h-48z" />
    <glyph glyph-name="underscore" unicode="_" horiz-adv-x="512" 
d="M0 -50v50h512v-50h-512z" />
    <glyph glyph-name="grave" unicode="`" horiz-adv-x="215" 
d="M183 602l-164 127v6h100l79 -133h-15z" />
    <glyph glyph-name="a" unicode="a" horiz-adv-x="512" 
d="M172 -14q-57 0 -94.5 28.5t-37.5 84.5q0 41 23.5 74t56 52t78.5 33t77.5 19.5t66.5 8.5v68q0 96 -81 96q-31 0 -52.5 -17.5t-21.5 -50.5q0 -32 31 -55l-87 -59q-38 38 -38 88q0 56 48.5 87t124.5 31q67 0 112.5 -31t45.5 -95v-262l49 -77v-9h-131v45q-66 -59 -170 -59z
M218 23q59 0 124 58v175q-39 -5 -69.5 -13.5t-63.5 -25t-51.5 -46.5t-18.5 -70q0 -37 21 -57.5t58 -20.5z" />
    <glyph glyph-name="b" unicode="b" horiz-adv-x="597" 
d="M318 -14q-83 0 -137 51v-37h-137v10l56 76v477q0 96 -51 129l114 59h23v-328q20 23 60 37t80 14q101 0 164 -66t63 -172q0 -108 -63.5 -179t-171.5 -71zM308 23q156 0 156 195q0 93 -45.5 147.5t-122.5 54.5q-35 0 -65.5 -15t-47.5 -40v-284q40 -58 125 -58z" />
    <glyph glyph-name="c" unicode="c" horiz-adv-x="520" 
d="M299 -14q-111 0 -183 68t-72 179q0 107 69.5 174t180.5 67q149 0 204 -111l-90 -34q0 59 -30.5 90.5t-84.5 31.5q-65 0 -109 -56t-44 -142q0 -95 51 -153t126 -58q99 0 159 84l28 -13q-55 -127 -205 -127z" />
    <glyph glyph-name="d" unicode="d" horiz-adv-x="589" 
d="M266 -14q-98 0 -160 71.5t-62 175.5q0 105 63 173t172 68q80 0 131 -42v126q0 87 -49 118l110 59h20v-649l56 -76v-10h-137v37q-51 -51 -144 -51zM299 41q78 0 111 52v293q-49 53 -131 53q-68 0 -108.5 -49.5t-40.5 -133.5q0 -99 45.5 -157t123.5 -58z" />
    <glyph glyph-name="e" unicode="e" horiz-adv-x="527" 
d="M490 268v-16h-351q3 -85 47.5 -149t128.5 -64q95 0 142 80l29 -12q-55 -121 -191 -121q-113 0 -182 69.5t-69 180.5q0 28 6 57.5t22.5 62.5t42 58t68 41.5t96.5 17.5q100 0 155.5 -53.5t55.5 -151.5zM276 451q-64 0 -99.5 -49t-37.5 -126l262 13q1 73 -35.5 117.5
t-89.5 44.5z" />
    <glyph glyph-name="f" unicode="f" horiz-adv-x="361" 
d="M72 0v9l50 77v342h-84v32h84v68q0 221 167 221q73 0 106.5 -17t55.5 -50l-82 -66h-22q5 22 5 37q0 36 -18 57t-46 21q-38 0 -61 -27.5t-23 -107.5v-136h142v-32h-142v-342l50 -77v-9h-182z" />
    <glyph glyph-name="g" unicode="g" horiz-adv-x="557" 
d="M518 467v-107l-84 22q17 -34 17 -74q0 -78 -54 -126t-140 -48q-36 0 -66 9l-40 -77q52 0 87.5 -1.5t79.5 -6t72.5 -14t55 -24.5t39 -39t12.5 -56q0 -43 -21 -73.5t-55.5 -46t-69.5 -22.5t-73 -7q-144 0 -234 76l75 149q-49 20 -49 68q0 31 26 53.5t70 28.5q-49 20 -77 61
t-28 95q0 74 54.5 120.5t141.5 46.5q96 0 150 -56l94 49h17zM263 162q49 0 75.5 34.5t26.5 87.5q0 59 -30 110.5t-84 51.5q-48 0 -76 -33.5t-28 -84.5q0 -60 31 -113t85 -53zM428 -105q0 41 -32.5 61.5t-73 23t-98.5 5.5t-88 11q-10 -31 -10 -67q0 -59 40.5 -91t116.5 -32
q22 0 44 3.5t46.5 12t39.5 27.5t15 46z" />
    <glyph glyph-name="h" unicode="h" horiz-adv-x="575" 
d="M52 0v9l48 77v477q0 96 -50 129l110 59h22v-354q49 77 145 77q24 0 49 -8t51.5 -25.5t43 -53t16.5 -83.5v-218l48 -77v-9h-178v9l48 77v206q0 136 -105 136q-50 0 -84 -34t-34 -81v-227l48 -77v-9h-178z" />
    <glyph glyph-name="i" unicode="i" horiz-adv-x="264" 
d="M127 554l-63 66l63 66l64 -66zM46 0v9l51 77v200q0 96 -50 129l109 59h23v-388l50 -77v-9h-183z" />
    <glyph glyph-name="j" unicode="j" horiz-adv-x="253" 
d="M130 554l-63 66l63 66l64 -66zM13 -210v14q42 9 60 52.5t18 137.5v292q0 97 -48 129l108 59h22v-469q0 -98 -37.5 -156.5t-122.5 -58.5z" />
    <glyph glyph-name="k" unicode="k" horiz-adv-x="538" 
d="M45 0v9l50 77v461q0 98 -49 129l108 59h23v-460l174 121l-31 52v12h169v-14l-223 -153l179 -207l72 -76v-10h-205v11l40 73l-144 170l-31 -23v-145l49 -77v-9h-181z" />
    <glyph glyph-name="l" unicode="l" horiz-adv-x="276" 
d="M45 0v10l52 76v461q0 96 -50 129l110 59h22v-649l50 -77v-9h-184z" />
    <glyph glyph-name="m" unicode="m" horiz-adv-x="863" 
d="M57 0v9l48 77v206q0 96 -48 129l108 46h22v-70q46 77 141 77q104 0 146 -82q40 83 149 83q67 0 109.5 -41t42.5 -111v-237l48 -77v-9h-178v9l48 77v243q0 43 -27 71t-73 28q-52 0 -82.5 -37t-30.5 -99v-206l48 -77v-9h-178v9l48 77v243q0 43 -25.5 71t-68.5 28t-80 -35
t-37 -89v-218l48 -77v-9h-178z" />
    <glyph glyph-name="n" unicode="n" horiz-adv-x="588" 
d="M59 0v9l48 77v206q0 97 -50 128l110 48h22v-71q49 77 143 77q26 0 52.5 -8t53.5 -25.5t44.5 -53t17.5 -83.5v-218l48 -77v-9h-178v9l48 77v206q0 136 -111 136q-52 0 -85 -35.5t-33 -79.5v-227l48 -77v-9h-178z" />
    <glyph glyph-name="o" unicode="o" horiz-adv-x="589" 
d="M302 -14q-110 0 -184 65t-74 179q0 113 75.5 178.5t174.5 65.5q100 0 175.5 -64t75.5 -174q0 -115 -73.5 -182.5t-169.5 -67.5zM311 12q63 0 100 56.5t37 152.5q0 101 -44.5 164t-115.5 63q-67 0 -107 -55t-40 -148q0 -104 47 -168.5t123 -64.5z" />
    <glyph glyph-name="p" unicode="p" horiz-adv-x="585" 
d="M49 -210v10l45 76v419q0 96 -50 128l111 44h20l-2 -58q55 65 146 65q98 0 160 -68.5t62 -177.5q0 -102 -61 -172t-161 -70q-89 0 -144 52v-162l44 -76v-10h-170zM297 21q70 0 113 51.5t43 140.5q0 93 -45 147.5t-124 54.5q-34 0 -63.5 -14.5t-45.5 -37.5v-287
q51 -55 122 -55z" />
    <glyph glyph-name="q" unicode="q" horiz-adv-x="582" 
d="M364 -210v10l45 76l-1 151q-56 -41 -143 -41q-98 0 -159.5 70t-61.5 174q0 103 61 173.5t160 70.5q89 0 148 -49l56 42h21v-591l45 -76v-10h-171zM297 42q78 0 112 47v295q-28 30 -55 40.5t-64 10.5q-72 0 -116 -47t-44 -132q0 -81 45.5 -147.5t121.5 -66.5z" />
    <glyph glyph-name="r" unicode="r" horiz-adv-x="442" 
d="M44 0v9l49 77v205q0 96 -51 128l110 48h23v-57q46 64 130 64q86 0 127 -63l-70 -96l-15 9q0 105 -81 105q-40 0 -65.5 -31.5t-25.5 -81.5v-230l48 -77v-9h-179z" />
    <glyph glyph-name="s" unicode="s" horiz-adv-x="452" 
d="M230 -14q-72 0 -113 28l-52 -21h-13v135h23q17 -53 56.5 -84t90.5 -31q52 0 78 22.5t26 60.5q0 31 -28.5 54t-69 39.5t-81 34.5t-69 50.5t-28.5 77.5q0 57 49 89.5t119 32.5q138 0 182 -85l-91 -67l-13 9q7 17 7 32q0 33 -22 58t-66 25q-36 0 -59.5 -19t-23.5 -54
q0 -33 29.5 -57t71 -40t83 -34t71 -50t29.5 -76q0 -63 -52.5 -96.5t-133.5 -33.5z" />
    <glyph glyph-name="t" unicode="t" horiz-adv-x="349" 
d="M216 -14q-126 0 -126 118v324h-64v11l128 169h18v-148h139v-32h-139v-332q0 -31 20 -48t49 -17t47 16t24 34l23 -9q-6 -30 -36.5 -58t-82.5 -28z" />
    <glyph glyph-name="u" unicode="u" horiz-adv-x="559" 
d="M257 -14q-31 0 -60 8t-57 25.5t-45 52.5t-17 83v136q0 58 -7.5 86t-30.5 42l97 48h23v-310q0 -58 26 -93t79 -35q64 0 93.5 36.5t29.5 90.5v135q0 55 -9.5 84t-32.5 44l102 48h22v-381l40 -75v-11h-120v50q-20 -30 -49.5 -47t-83.5 -17z" />
    <glyph glyph-name="v" unicode="v" horiz-adv-x="495" 
d="M237 -14l-224 463v11h173v-9l-42 -70l133 -278l125 279l-41 69v9h123v-11l-33 -65l-178 -398h-36z" />
    <glyph glyph-name="w" unicode="w" horiz-adv-x="724" 
d="M224 -14l-167 393l-34 70v11h156v-11l-32 -68l111 -268l86 219l-48 117v11h162v-11l-38 -89l93 -247l113 273l-35 63v11h112v-10l-32 -69l-164 -395h-29l-111 288l-112 -288h-31z" />
    <glyph glyph-name="x" unicode="x" horiz-adv-x="475" 
d="M8 0v10l66 76l115 152l-169 212v10h186v-11l-35 -68l80 -100l77 100l-34 68v11h135v-10l-59 -71l-97 -123l194 -246v-10h-196v11l36 75l-95 123l-91 -123l37 -75v-11h-150z" />
    <glyph glyph-name="y" unicode="y" horiz-adv-x="504" 
d="M150 -210v11l43 61l56 138l-241 449v11h180v-9l-42 -70l146 -283l117 284l-46 68v10h129v-11l-33 -65l-216 -522l36 -62v-10h-129z" />
    <glyph glyph-name="z" unicode="z" horiz-adv-x="473" 
d="M31 0v9l274 425h-142l-109 -105h-19l41 131h337v-9l-273 -424h136q43 0 66.5 38.5t21.5 66.5l84 -93q-13 -18 -42.5 -27.5t-51 -10.5t-57.5 -1h-266z" />
    <glyph glyph-name="braceleft" unicode="{" horiz-adv-x="239" 
d="M227 -125q-78 0 -118.5 29.5t-40.5 99.5v188q0 108 -58 108v23q58 0 58 108v186q0 70 40.5 100.5t118.5 30.5v-16q-39 0 -64 -35t-25 -106v-180q0 -81 -56 -96l-20 -4l20 -3q56 -15 56 -96v-182q0 -71 25 -105t64 -34v-16z" />
    <glyph glyph-name="bar" unicode="|" horiz-adv-x="200" 
d="M75 -269v1004h50v-1004h-50z" />
    <glyph glyph-name="braceright" unicode="}" horiz-adv-x="239" 
d="M10 -125v16q39 0 64 34t25 105v182q0 81 56 96l20 3l-20 4q-56 15 -56 96v180q0 71 -25 106t-64 35v16q78 0 118.5 -30.5t40.5 -100.5v-186q0 -108 58 -108v-23q-58 0 -58 -108v-188q0 -70 -40.5 -99.5t-118.5 -29.5z" />
    <glyph glyph-name="asciitilde" unicode="~" horiz-adv-x="492" 
d="M21 220q0 5 1.5 14.5t9.5 32.5t22 41t43 32.5t68 14.5q40 0 70 -18.5t56 -36.5t56 -18q40 0 65.5 19t31.5 37l6 19h21q0 -5 -1.5 -14.5t-9.5 -32.5t-22 -41t-43 -32.5t-68 -14.5q-31 0 -57 11.5t-41 25t-37 25t-46 11.5q-25 0 -45 -7.5t-30.5 -18.5t-17 -22.5t-8.5 -18.5
l-2 -8h-22z" />
    <glyph glyph-name="cent" unicode="&#xa2;" horiz-adv-x="520" 
d="M504 113q-51 -119 -190 -127v-53h-39v54q-102 8 -166.5 74.5t-64.5 171.5q0 102 63.5 168t167.5 72v83h39v-83q132 -6 184 -110l-90 -34q0 53 -24.5 84t-69.5 37v-408h3q99 0 159 84zM140 253q0 -81 37.5 -135.5t97.5 -70.5v403q-59 -8 -97 -62.5t-38 -134.5z" />
    <glyph glyph-name="sterling" unicode="&#xa3;" horiz-adv-x="587" 
d="M48 0v9q77 66 112.5 130t35.5 146q0 39 -15 71h-112v36h85q-24 34 -37 55t-26 56.5t-13 69.5q0 77 61 125.5t146 48.5q164 0 224 -129l-103 -59h-11q5 76 -24 118t-85 42q-53 0 -82.5 -36t-29.5 -102q0 -33 12 -64.5t32.5 -68.5t28.5 -56h115v-36h-103
q16 -93 -17.5 -171.5t-111.5 -158.5h185q64 0 102 40.5t45 83.5l90 -67q-7 -25 -23 -41t-68 -29t-140 -13h-273z" />
    <glyph glyph-name="dieresis" unicode="&#xa8;" horiz-adv-x="600" 
d="M217 534l-55 56l55 57l55 -57zM366 534l-55 56l55 57l55 -57z" />
    <glyph glyph-name="guillemotleft" unicode="&#xab;" horiz-adv-x="382" 
d="M190 126l-172 132v30l172 132h8v-43l-80 -104l80 -101v-46h-8zM355 126l-170 132v30l170 132h9v-43l-80 -104l80 -101v-46h-9z" />
    <glyph glyph-name="macron" unicode="&#xaf;" horiz-adv-x="340" 
d="M60 552v34h220v-34h-220z" />
    <glyph glyph-name="acute" unicode="&#xb4;" horiz-adv-x="299" 
d="M60 529l79 133h97v-6l-161 -127h-15z" />
    <glyph glyph-name="uni00B5" unicode="&#xb5;" horiz-adv-x="567" 
d="M155 -224l-67 23v501q0 58 -7.5 86t-30.5 42l95 48h23v-319q0 -59 26.5 -94t80.5 -35q64 0 93.5 37t29.5 91v144q0 55 -9.5 84t-32.5 44l100 48h22v-390l40 -75v-11h-118v50q-42 -65 -128 -65q-34 0 -65.5 15t-38.5 39v-263h-13z" />
    <glyph glyph-name="paragraph" unicode="&#xb6;" horiz-adv-x="482" 
d="M276 -210l-65 30v452q-92 0 -156.5 64.5t-64.5 156.5t64.5 157t156.5 65h231v-925h-7l-65 30v845h-87v-875h-7z" />
    <glyph glyph-name="cedilla" unicode="&#xb8;" horiz-adv-x="600" 
d="M103 -194q-23 0 -43 5l1 17q12 -3 32 -3q55 0 55 44q0 43 -83 52v8l71 84h28l-41 -59q84 -20 84 -76q0 -72 -104 -72z" />
    <glyph glyph-name="guillemotright" unicode="&#xbb;" horiz-adv-x="382" 
d="M18 126v46l80 101l-80 104v43h9l170 -132v-30l-170 -132h-9zM184 126v46l80 101l-80 104v43h8l172 -132v-30l-172 -132h-8z" />
    <glyph glyph-name="Agrave" unicode="&#xc0;" horiz-adv-x="693" 
d="M417 804h-15l-161 127v6h97zM619 93l56 -84v-9h-202v9l49 84l-71 172h-258l-68 -172l63 -84v-9h-176v9l66 84l219 547l-30 74l92 27zM206 298h232l-119 288z" />
    <glyph glyph-name="Aacute" unicode="&#xc1;" horiz-adv-x="693" 
d="M444 931l-161 -127h-15l79 133h97v-6zM619 93l56 -84v-9h-202v9l49 84l-71 172h-258l-68 -172l63 -84v-9h-176v9l66 84l219 547l-30 74l92 27zM206 298h232l-119 288z" />
    <glyph glyph-name="Acircumflex" unicode="&#xc2;" horiz-adv-x="693" 
d="M347 855l-72 -63h-40v6l111 128l111 -128v-6h-40zM619 93l56 -84v-9h-202v9l49 84l-71 172h-258l-68 -172l63 -84v-9h-176v9l66 84l219 547l-30 74l92 27zM206 298h232l-119 288z" />
    <glyph glyph-name="Atilde" unicode="&#xc3;" horiz-adv-x="693" 
d="M297 855q-33 0 -41 -25l-27 13q6 25 25.5 38.5t42.5 13.5q22 0 50 -13t45 -13q15 0 28.5 7t16.5 17l28 -14q-17 -51 -73 -51q-18 0 -48 13.5t-47 13.5zM619 93l56 -84v-9h-202v9l49 84l-71 172h-258l-68 -172l63 -84v-9h-176v9l66 84l219 547l-30 74l92 27zM206 298h232
l-119 288z" />
    <glyph glyph-name="Adieresis" unicode="&#xc4;" horiz-adv-x="693" 
d="M327 865l-55 -56l-55 56l55 57zM476 865l-55 -56l-55 56l55 57zM619 93l56 -84v-9h-202v9l49 84l-71 172h-258l-68 -172l63 -84v-9h-176v9l66 84l219 547l-30 74l92 27zM206 298h232l-119 288z" />
    <glyph glyph-name="Aring" unicode="&#xc5;" horiz-adv-x="693" 
d="M347 799q-27 0 -46.5 19.5t-19.5 46.5t19.5 46.5t46.5 19.5t46.5 -19.5t19.5 -46.5t-19.5 -46.5t-46.5 -19.5zM347 897q-13 0 -22.5 -9.5t-9.5 -22.5t9.5 -22.5t22.5 -9.5t22.5 9.5t9.5 22.5t-9.5 22.5t-22.5 9.5zM619 93l56 -84v-9h-202v9l49 84l-71 172h-258l-68 -172
l63 -84v-9h-176v9l66 84l219 547l-30 74l92 27zM206 298h232l-119 288z" />
    <glyph glyph-name="AE" unicode="&#xc6;" horiz-adv-x="1034" 
d="M12 0v10l66 84l385 578l-49 54v9h498l36 -161h-16l-125 135h-226v-286h165l72 49v1h10v-152h-10l-72 69h-165v-364h173q64 0 101 38t49 83l90 -97q-40 -33 -81 -42.5t-128 -7.5h-357v9l63 83v174h-240l-115 -172l69 -84h-1v-10h-192zM269 299h222v334z" />
    <glyph glyph-name="Ccedilla" unicode="&#xc7;" horiz-adv-x="760" 
d="M427 40q88 0 150 44t83 109h28v-193h-14l-59 43q-72 -57 -203 -57h-4l-22 -32q84 -20 84 -76q0 -72 -104 -72q-23 0 -43 5l1 17q12 -3 32 -3q55 0 55 44q0 43 -83 52v8l49 58q-150 12 -241.5 116.5t-91.5 263.5q0 172 101.5 277t262.5 105q41 0 85 -10t92 -31.5t88 -64.5
t59 -100l-92 -84q-4 40 -19.5 82.5t-43 85t-74.5 69.5t-105 27q-119 0 -190 -85.5t-71 -229.5q0 -164 80.5 -266t209.5 -102z" />
    <glyph glyph-name="Egrave" unicode="&#xc8;" horiz-adv-x="654" 
d="M373 804h-15l-161 127v6h97zM524 147l90 -97q-40 -33 -81 -42.5t-128 -7.5h-357v9l63 83v550l-77 84v9h498l36 -161h-16l-125 135h-226v-287h165l72 51h10v-152h-10l-72 69h-165v-364h173q64 0 101 38t49 83z" />
    <glyph glyph-name="Eacute" unicode="&#xc9;" horiz-adv-x="654" 
d="M400 931l-161 -127h-15l79 133h97v-6zM524 147l90 -97q-40 -33 -81 -42.5t-128 -7.5h-357v9l63 83v550l-77 84v9h498l36 -161h-16l-125 135h-226v-287h165l72 51h10v-152h-10l-72 69h-165v-364h173q64 0 101 38t49 83z" />
    <glyph glyph-name="Ecircumflex" unicode="&#xca;" horiz-adv-x="654" 
d="M303 855l-72 -63h-40v6l111 128l111 -128v-6h-40zM524 147l90 -97q-40 -33 -81 -42.5t-128 -7.5h-357v9l63 83v550l-77 84v9h498l36 -161h-16l-125 135h-226v-287h165l72 51h10v-152h-10l-72 69h-165v-364h173q64 0 101 38t49 83z" />
    <glyph glyph-name="Edieresis" unicode="&#xcb;" horiz-adv-x="654" 
d="M283 865l-55 -56l-55 56l55 57zM432 865l-55 -56l-55 56l55 57zM524 147l90 -97q-40 -33 -81 -42.5t-128 -7.5h-357v9l63 83v550l-77 84v9h498l36 -161h-16l-125 135h-226v-287h165l72 51h10v-152h-10l-72 69h-165v-364h173q64 0 101 38t49 83z" />
    <glyph glyph-name="Igrave" unicode="&#xcc;" horiz-adv-x="313" 
d="M78 804l79 133h97v-6l-161 -127h-15zM56 0v10l56 83v552l-39 80v10h167v-10l-38 -80v-552l55 -83v-10h-201z" />
    <glyph glyph-name="Iacute" unicode="&#xcd;" horiz-adv-x="313" 
d="M212 804l-161 127v6h97l79 -133h-15zM56 0v10l56 83v552l-39 80v10h167v-10l-38 -80v-552l55 -83v-10h-201z" />
    <glyph glyph-name="Icircumflex" unicode="&#xce;" horiz-adv-x="313" 
d="M45 792v6l111 128l111 -128v-6h-40l-70 63l-72 -63h-40zM56 0v10l56 83v552l-39 80v10h167v-10l-38 -80v-552l55 -83v-10h-201z" />
    <glyph glyph-name="Idieresis" unicode="&#xcf;" horiz-adv-x="312" 
d="M81 784l-55 56l55 57l55 -57zM230 784l-55 56l55 57l55 -57zM56 0v10l56 83v552l-39 80v10h167v-10l-38 -80v-552l55 -83v-10h-201z" />
    <glyph glyph-name="Eth" unicode="&#xd0;" horiz-adv-x="720" 
d="M292 735q186 0 285 -100.5t99 -284.5q0 -95 -27.5 -168t-73 -114.5t-97.5 -61.5t-108 -20q-118 0 -159 71v-57h-145v9l58 84v229h-57v32h57v289l-82 82v10h250zM354 27q100 0 161.5 75t61.5 248q0 155 -74.5 257t-210.5 102h-78v-355h77v-32h-77v-223q21 -35 58.5 -53.5
t81.5 -18.5z" />
    <glyph glyph-name="Ntilde" unicode="&#xd1;" horiz-adv-x="720" 
d="M405 828q-17 0 -47 13.5t-48 13.5q-33 0 -41 -25l-27 13q6 25 25.5 38.5t42.5 13.5q22 0 50 -13t45 -13q15 0 28.5 7t16.5 17l28 -14q-17 -51 -73 -51zM582 -6l-434 596v-497l62 -84v-9h-168v9l62 84v549l-62 84v9h113l419 -566v475l-60 82v9h164v-9l-60 -82v-650h-36z
" />
    <glyph glyph-name="Ograve" unicode="&#xd2;" horiz-adv-x="855" 
d="M483 804l-161 127v6h97l79 -133h-15zM427 -14q-171 0 -277 107.5t-106 273.5q0 167 105.5 274.5t277.5 107.5q171 0 277.5 -107t106.5 -275q0 -165 -107 -273t-277 -108zM443 12q120 0 192.5 84.5t72.5 218.5q0 168 -90 287.5t-210 119.5q-122 0 -192 -86t-70 -218
q0 -165 87.5 -285.5t209.5 -120.5z" />
    <glyph glyph-name="Oacute" unicode="&#xd3;" horiz-adv-x="855" 
d="M349 804l79 133h97v-6l-161 -127h-15zM427 -14q-171 0 -277 107.5t-106 273.5q0 167 105.5 274.5t277.5 107.5q171 0 277.5 -107t106.5 -275q0 -165 -107 -273t-277 -108zM443 12q120 0 192.5 84.5t72.5 218.5q0 168 -90 287.5t-210 119.5q-122 0 -192 -86t-70 -218
q0 -165 87.5 -285.5t209.5 -120.5z" />
    <glyph glyph-name="Ocircumflex" unicode="&#xd4;" horiz-adv-x="855" 
d="M316 792v6l111 128l111 -128v-6h-40l-70 63l-72 -63h-40zM427 -14q-171 0 -277 107.5t-106 273.5q0 167 105.5 274.5t277.5 107.5q171 0 277.5 -107t106.5 -275q0 -165 -107 -273t-277 -108zM443 12q120 0 192.5 84.5t72.5 218.5q0 168 -90 287.5t-210 119.5
q-122 0 -192 -86t-70 -218q0 -165 87.5 -285.5t209.5 -120.5z" />
    <glyph glyph-name="Otilde" unicode="&#xd5;" horiz-adv-x="855" 
d="M473 828q-17 0 -47 13.5t-48 13.5q-33 0 -41 -25l-27 13q6 25 25.5 38.5t42.5 13.5q22 0 50 -13t45 -13q15 0 28.5 7t16.5 17l28 -14q-17 -51 -73 -51zM427 -14q-171 0 -277 107.5t-106 273.5q0 167 105.5 274.5t277.5 107.5q171 0 277.5 -107t106.5 -275
q0 -165 -107 -273t-277 -108zM443 12q120 0 192.5 84.5t72.5 218.5q0 168 -90 287.5t-210 119.5q-122 0 -192 -86t-70 -218q0 -165 87.5 -285.5t209.5 -120.5z" />
    <glyph glyph-name="Odieresis" unicode="&#xd6;" horiz-adv-x="855" 
d="M353 809l-55 56l55 57l55 -57zM502 809l-55 56l55 57l55 -57zM427 -14q-171 0 -277 107.5t-106 273.5q0 167 105.5 274.5t277.5 107.5q171 0 277.5 -107t106.5 -275q0 -165 -107 -273t-277 -108zM443 12q120 0 192.5 84.5t72.5 218.5q0 168 -90 287.5t-210 119.5
q-122 0 -192 -86t-70 -218q0 -165 87.5 -285.5t209.5 -120.5z" />
    <glyph glyph-name="multiply" unicode="&#xd7;" horiz-adv-x="342" 
d="M264 368l-67 -67l67 -67l-26 -26l-67 67l-67 -67l-26 26l67 67l-67 67l26 26l67 -67l67 67z" />
    <glyph glyph-name="Oslash" unicode="&#xd8;" horiz-adv-x="855" 
d="M680 664q63 -51 97 -128t34 -169q0 -165 -107 -273t-277 -108q-120 0 -213 57l-53 -71h-60l74 99q-131 109 -131 296q0 167 105.5 274.5t277.5 107.5q119 0 210 -55l52 70h66zM146 418q0 -158 81 -276l365 492q-83 88 -184 88q-122 0 -192 -86t-70 -218zM443 12
q120 0 192.5 84.5t72.5 218.5q0 157 -82 277l-368 -490q82 -90 185 -90z" />
    <glyph glyph-name="Ugrave" unicode="&#xd9;" horiz-adv-x="711" 
d="M411 804l-161 127v6h97l79 -133h-15zM366 -14q-64 0 -121 19.5t-98 67t-41 114.5v457l-56 83v8h200v-8l-54 -83v-454q0 -74 53 -115.5t126 -41.5q50 0 86.5 16t55 41.5t26.5 50t8 48.5v455l-60 83v8h172v-8l-60 -83v-448q0 -22 -4.5 -45.5t-20 -54t-40 -54t-69.5 -40
t-103 -16.5z" />
    <glyph glyph-name="Uacute" unicode="&#xda;" horiz-adv-x="711" 
d="M277 804l79 133h97v-6l-161 -127h-15zM366 -14q-64 0 -121 19.5t-98 67t-41 114.5v457l-56 83v8h200v-8l-54 -83v-454q0 -74 53 -115.5t126 -41.5q50 0 86.5 16t55 41.5t26.5 50t8 48.5v455l-60 83v8h172v-8l-60 -83v-448q0 -22 -4.5 -45.5t-20 -54t-40 -54t-69.5 -40
t-103 -16.5z" />
    <glyph glyph-name="Ucircumflex" unicode="&#xdb;" horiz-adv-x="711" 
d="M244 792v6l111 128l111 -128v-6h-40l-70 63l-72 -63h-40zM366 -14q-64 0 -121 19.5t-98 67t-41 114.5v457l-56 83v8h200v-8l-54 -83v-454q0 -74 53 -115.5t126 -41.5q50 0 86.5 16t55 41.5t26.5 50t8 48.5v455l-60 83v8h172v-8l-60 -83v-448q0 -22 -4.5 -45.5t-20 -54
t-40 -54t-69.5 -40t-103 -16.5z" />
    <glyph glyph-name="Udieresis" unicode="&#xdc;" horiz-adv-x="711" 
d="M281 809l-55 56l55 57l55 -57zM430 809l-55 56l55 57l55 -57zM366 -14q-64 0 -121 19.5t-98 67t-41 114.5v457l-56 83v8h200v-8l-54 -83v-454q0 -74 53 -115.5t126 -41.5q50 0 86.5 16t55 41.5t26.5 50t8 48.5v455l-60 83v8h172v-8l-60 -83v-448q0 -22 -4.5 -45.5
t-20 -54t-40 -54t-69.5 -40t-103 -16.5z" />
    <glyph glyph-name="Yacute" unicode="&#xdd;" horiz-adv-x="572" 
d="M256 804l79 133h97v-6l-161 -127h-15zM182 0v9l60 84v253l-220 380v9h199v-9l-48 -81l138 -244l146 243l-56 82v9h151v-9l-220 -363v-270l60 -84v-9h-210z" />
    <glyph glyph-name="Thorn" unicode="&#xde;" horiz-adv-x="641" 
d="M297 489q143 0 221.5 -58t78.5 -163q0 -106 -79.5 -164.5t-224.5 -58.5h-91v-162l55 -83v-10h-201v10l56 83v762l-39 80v10h167v-10l-38 -80v-156h95zM297 79q97 0 150 49.5t53 139.5q0 89 -55 138t-154 49h-89v-376h95z" />
    <glyph glyph-name="germandbls" unicode="&#xdf;" horiz-adv-x="642" 
d="M401 461q90 -3 146.5 -70.5t56.5 -173.5q0 -102 -63 -166.5t-162 -64.5q-143 0 -182 82l95 78h17q-15 -19 -15 -49q0 -34 25 -58t68 -24q57 0 91.5 52t34.5 140q0 95 -45.5 151t-122.5 56q-30 0 -65 -11l-8 25q36 14 78 59.5t45 115.5q0 57 -29 92t-77 35
q-46 0 -79.5 -38t-33.5 -134v-558h-134v10l53 77v425q0 121 57 179t142 58q86 0 134 -41t48 -114q0 -39 -22 -75.5t-53 -57.5z" />
    <glyph glyph-name="agrave" unicode="&#xe0;" horiz-adv-x="512" 
d="M311 529l-161 127v6h97l79 -133h-15zM172 -14q-57 0 -94.5 28.5t-37.5 84.5q0 41 23.5 74t56 52t78.5 33t77.5 19.5t66.5 8.5v68q0 96 -81 96q-31 0 -52.5 -17.5t-21.5 -50.5q0 -32 31 -55l-87 -59q-38 38 -38 88q0 56 48.5 87t124.5 31q67 0 112.5 -31t45.5 -95v-262
l49 -77v-9h-131v45q-66 -59 -170 -59zM218 23q59 0 124 58v175q-39 -5 -69.5 -13.5t-63.5 -25t-51.5 -46.5t-18.5 -70q0 -37 21 -57.5t58 -20.5z" />
    <glyph glyph-name="aacute" unicode="&#xe1;" horiz-adv-x="512" 
d="M177 529l79 133h97v-6l-161 -127h-15zM172 -14q-57 0 -94.5 28.5t-37.5 84.5q0 41 23.5 74t56 52t78.5 33t77.5 19.5t66.5 8.5v68q0 96 -81 96q-31 0 -52.5 -17.5t-21.5 -50.5q0 -32 31 -55l-87 -59q-38 38 -38 88q0 56 48.5 87t124.5 31q67 0 112.5 -31t45.5 -95v-262
l49 -77v-9h-131v45q-66 -59 -170 -59zM218 23q59 0 124 58v175q-39 -5 -69.5 -13.5t-63.5 -25t-51.5 -46.5t-18.5 -70q0 -37 21 -57.5t58 -20.5z" />
    <glyph glyph-name="acircumflex" unicode="&#xe2;" horiz-adv-x="512" 
d="M144 517v6l111 128l111 -128v-6h-40l-70 63l-72 -63h-40zM172 -14q-57 0 -94.5 28.5t-37.5 84.5q0 41 23.5 74t56 52t78.5 33t77.5 19.5t66.5 8.5v68q0 96 -81 96q-31 0 -52.5 -17.5t-21.5 -50.5q0 -32 31 -55l-87 -59q-38 38 -38 88q0 56 48.5 87t124.5 31
q67 0 112.5 -31t45.5 -95v-262l49 -77v-9h-131v45q-66 -59 -170 -59zM218 23q59 0 124 58v175q-39 -5 -69.5 -13.5t-63.5 -25t-51.5 -46.5t-18.5 -70q0 -37 21 -57.5t58 -20.5z" />
    <glyph glyph-name="atilde" unicode="&#xe3;" horiz-adv-x="512" 
d="M301 553q-17 0 -47 13.5t-48 13.5q-33 0 -41 -25l-27 13q6 25 25.5 38.5t42.5 13.5q22 0 50 -13t45 -13q15 0 28.5 7t16.5 17l28 -14q-17 -51 -73 -51zM172 -14q-57 0 -94.5 28.5t-37.5 84.5q0 41 23.5 74t56 52t78.5 33t77.5 19.5t66.5 8.5v68q0 96 -81 96
q-31 0 -52.5 -17.5t-21.5 -50.5q0 -32 31 -55l-87 -59q-38 38 -38 88q0 56 48.5 87t124.5 31q67 0 112.5 -31t45.5 -95v-262l49 -77v-9h-131v45q-66 -59 -170 -59zM218 23q59 0 124 58v175q-39 -5 -69.5 -13.5t-63.5 -25t-51.5 -46.5t-18.5 -70q0 -37 21 -57.5t58 -20.5z
" />
    <glyph glyph-name="adieresis" unicode="&#xe4;" horiz-adv-x="512" 
d="M181 534l-55 56l55 57l55 -57zM330 534l-55 56l55 57l55 -57zM172 -14q-57 0 -94.5 28.5t-37.5 84.5q0 41 23.5 74t56 52t78.5 33t77.5 19.5t66.5 8.5v68q0 96 -81 96q-31 0 -52.5 -17.5t-21.5 -50.5q0 -32 31 -55l-87 -59q-38 38 -38 88q0 56 48.5 87t124.5 31
q67 0 112.5 -31t45.5 -95v-262l49 -77v-9h-131v45q-66 -59 -170 -59zM218 23q59 0 124 58v175q-39 -5 -69.5 -13.5t-63.5 -25t-51.5 -46.5t-18.5 -70q0 -37 21 -57.5t58 -20.5z" />
    <glyph glyph-name="aring" unicode="&#xe5;" horiz-adv-x="512" 
d="M256 524q-27 0 -46.5 19.5t-19.5 46.5t19.5 46.5t46.5 19.5t46.5 -19.5t19.5 -46.5t-19.5 -46.5t-46.5 -19.5zM256 558q14 0 23 9t9 23t-9 23t-23 9t-23 -9t-9 -23t9 -23t23 -9zM172 -14q-57 0 -94.5 28.5t-37.5 84.5q0 41 23.5 74t56 52t78.5 33t77.5 19.5t66.5 8.5v68
q0 96 -81 96q-31 0 -52.5 -17.5t-21.5 -50.5q0 -32 31 -55l-87 -59q-38 38 -38 88q0 56 48.5 87t124.5 31q67 0 112.5 -31t45.5 -95v-262l49 -77v-9h-131v45q-66 -59 -170 -59zM218 23q59 0 124 58v175q-39 -5 -69.5 -13.5t-63.5 -25t-51.5 -46.5t-18.5 -70q0 -37 21 -57.5
t58 -20.5z" />
    <glyph glyph-name="ae" unicode="&#xe6;" horiz-adv-x="812" 
d="M775 268v-16h-351q3 -85 47.5 -149t128.5 -64q95 0 142 80l29 -12q-55 -121 -191 -121q-138 0 -198 94q-40 -45 -85.5 -69.5t-112.5 -24.5q-65 0 -104.5 28t-39.5 85q0 41 23.5 74t56 52t78.5 33t77.5 19.5t66.5 8.5v68q0 96 -81 96q-31 0 -52.5 -17.5t-21.5 -50.5
q0 -32 31 -55l-87 -59q-38 38 -38 88q0 56 48.5 87t124.5 31q105 0 142 -64q53 64 154 64q102 1 157.5 -53.5t55.5 -152.5zM424 276l262 13q-1 44 -13.5 77t-32.5 50.5t-40.5 26t-40.5 8.5q-62 0 -97.5 -49t-37.5 -126zM218 23q84 0 149 84q-25 55 -25 129v20
q-39 -5 -69.5 -13.5t-63.5 -25t-51.5 -46.5t-18.5 -70q0 -38 20.5 -58t58.5 -20z" />
    <glyph glyph-name="ccedilla" unicode="&#xe7;" horiz-adv-x="520" 
d="M299 -14h-7l-22 -32q84 -20 84 -76q0 -72 -104 -72q-23 0 -43 5l1 17q12 -3 32 -3q55 0 55 44q0 43 -83 52v8l50 59q-97 11 -157.5 77.5t-60.5 167.5q0 107 69.5 174t180.5 67q149 0 204 -111l-90 -34q0 59 -30.5 90.5t-84.5 31.5q-65 0 -109 -56t-44 -142q0 -95 51 -153
t126 -58q99 0 159 84l28 -13q-55 -127 -205 -127z" />
    <glyph glyph-name="egrave" unicode="&#xe8;" horiz-adv-x="527" 
d="M334 529h-15l-161 127v6h97zM490 268v-16h-351q3 -85 47.5 -149t128.5 -64q95 0 142 80l29 -12q-55 -121 -191 -121q-113 0 -182 69.5t-69 180.5q0 28 6 57.5t22.5 62.5t42 58t68 41.5t96.5 17.5q100 0 155.5 -53.5t55.5 -151.5zM276 451q-64 0 -99.5 -49t-37.5 -126
l262 13q1 73 -35.5 117.5t-89.5 44.5z" />
    <glyph glyph-name="eacute" unicode="&#xe9;" horiz-adv-x="527" 
d="M361 656l-161 -127h-15l79 133h97v-6zM490 268v-16h-351q3 -85 47.5 -149t128.5 -64q95 0 142 80l29 -12q-55 -121 -191 -121q-113 0 -182 69.5t-69 180.5q0 28 6 57.5t22.5 62.5t42 58t68 41.5t96.5 17.5q100 0 155.5 -53.5t55.5 -151.5zM276 451q-64 0 -99.5 -49
t-37.5 -126l262 13q1 73 -35.5 117.5t-89.5 44.5z" />
    <glyph glyph-name="ecircumflex" unicode="&#xea;" horiz-adv-x="527" 
d="M264 580l-72 -63h-40v6l111 128l111 -128v-6h-40zM490 268v-16h-351q3 -85 47.5 -149t128.5 -64q95 0 142 80l29 -12q-55 -121 -191 -121q-113 0 -182 69.5t-69 180.5q0 28 6 57.5t22.5 62.5t42 58t68 41.5t96.5 17.5q100 0 155.5 -53.5t55.5 -151.5zM276 451
q-64 0 -99.5 -49t-37.5 -126l262 13q1 73 -35.5 117.5t-89.5 44.5z" />
    <glyph glyph-name="edieresis" unicode="&#xeb;" horiz-adv-x="527" 
d="M244 590l-55 -56l-55 56l55 57zM393 590l-55 -56l-55 56l55 57zM490 268v-16h-351q3 -85 47.5 -149t128.5 -64q95 0 142 80l29 -12q-55 -121 -191 -121q-113 0 -182 69.5t-69 180.5q0 28 6 57.5t22.5 62.5t42 58t68 41.5t96.5 17.5q100 0 155.5 -53.5t55.5 -151.5z
M276 451q-64 0 -99.5 -49t-37.5 -126l262 13q1 73 -35.5 117.5t-89.5 44.5z" />
    <glyph glyph-name="igrave" unicode="&#xec;" horiz-adv-x="264" 
d="M187 529l-161 127v6h97l79 -133h-15zM46 0v9l51 77v200q0 96 -50 129l109 59h23v-388l50 -77v-9h-183z" />
    <glyph glyph-name="iacute" unicode="&#xed;" horiz-adv-x="264" 
d="M53 529l79 133h97v-6l-161 -127h-15zM46 0v9l51 77v200q0 96 -50 129l109 59h23v-388l50 -77v-9h-183z" />
    <glyph glyph-name="icircumflex" unicode="&#xee;" horiz-adv-x="264" 
d="M20 517v6l111 128l111 -128v-6h-40l-70 63l-72 -63h-40zM46 0v9l51 77v200q0 96 -50 129l109 59h23v-388l50 -77v-9h-183z" />
    <glyph glyph-name="idieresis" unicode="&#xef;" horiz-adv-x="264" 
d="M57 534l-55 56l55 57l55 -57zM206 534l-55 56l55 57l55 -57zM46 0v9l51 77v200q0 96 -50 129l109 59h23v-388l50 -77v-9h-183z" />
    <glyph glyph-name="eth" unicode="&#xf0;" horiz-adv-x="556" 
d="M332 686q86 -68 133 -175.5t47 -233.5q0 -138 -60.5 -214.5t-169.5 -76.5q-102 0 -171 65t-69 179q0 112 69.5 178t159.5 66q93 0 152 -78q-31 164 -129 252l-57 -58l-21 21l54 56q-30 23 -67 38l18 44q46 -18 86 -44l49 50l22 -22zM291 27q58 0 94.5 53t36.5 141
q0 100 -43.5 163.5t-109.5 63.5q-59 0 -99 -56t-40 -147q0 -95 47.5 -156.5t113.5 -61.5z" />
    <glyph glyph-name="ntilde" unicode="&#xf1;" horiz-adv-x="588" 
d="M339 553q-17 0 -47 13.5t-48 13.5q-33 0 -41 -25l-27 13q6 25 25.5 38.5t42.5 13.5q22 0 50 -13t45 -13q15 0 28.5 7t16.5 17l28 -14q-17 -51 -73 -51zM59 0v9l48 77v206q0 97 -50 128l110 48h22v-71q49 77 143 77q26 0 52.5 -8t53.5 -25.5t44.5 -53t17.5 -83.5v-218
l48 -77v-9h-178v9l48 77v206q0 136 -111 136q-52 0 -85 -35.5t-33 -79.5v-227l48 -77v-9h-178z" />
    <glyph glyph-name="ograve" unicode="&#xf2;" horiz-adv-x="589" 
d="M350 529l-161 127v6h97l79 -133h-15zM302 -14q-110 0 -184 65t-74 179q0 113 75.5 178.5t174.5 65.5q100 0 175.5 -64t75.5 -174q0 -115 -73.5 -182.5t-169.5 -67.5zM311 12q63 0 100 56.5t37 152.5q0 101 -44.5 164t-115.5 63q-67 0 -107 -55t-40 -148q0 -104 47 -168.5
t123 -64.5z" />
    <glyph glyph-name="oacute" unicode="&#xf3;" horiz-adv-x="589" 
d="M216 529l79 133h97v-6l-161 -127h-15zM302 -14q-110 0 -184 65t-74 179q0 113 75.5 178.5t174.5 65.5q100 0 175.5 -64t75.5 -174q0 -115 -73.5 -182.5t-169.5 -67.5zM311 12q63 0 100 56.5t37 152.5q0 101 -44.5 164t-115.5 63q-67 0 -107 -55t-40 -148
q0 -104 47 -168.5t123 -64.5z" />
    <glyph glyph-name="ocircumflex" unicode="&#xf4;" horiz-adv-x="589" 
d="M183 517v6l111 128l111 -128v-6h-40l-70 63l-72 -63h-40zM302 -14q-110 0 -184 65t-74 179q0 113 75.5 178.5t174.5 65.5q100 0 175.5 -64t75.5 -174q0 -115 -73.5 -182.5t-169.5 -67.5zM311 12q63 0 100 56.5t37 152.5q0 101 -44.5 164t-115.5 63q-67 0 -107 -55
t-40 -148q0 -104 47 -168.5t123 -64.5z" />
    <glyph glyph-name="otilde" unicode="&#xf5;" horiz-adv-x="589" 
d="M340 553q-18 0 -48 13.5t-47 13.5q-33 0 -41 -25l-27 13q6 25 25.5 38.5t42.5 13.5q22 0 50 -13t45 -13q15 0 28.5 7t16.5 17l28 -14q-17 -51 -73 -51zM302 -14q-110 0 -184 65t-74 179q0 113 75.5 178.5t174.5 65.5q100 0 175.5 -64t75.5 -174q0 -115 -73.5 -182.5
t-169.5 -67.5zM311 12q63 0 100 56.5t37 152.5q0 101 -44.5 164t-115.5 63q-67 0 -107 -55t-40 -148q0 -104 47 -168.5t123 -64.5z" />
    <glyph glyph-name="odieresis" unicode="&#xf6;" horiz-adv-x="589" 
d="M220 534l-55 56l55 57l55 -57zM369 534l-55 56l55 57l55 -57zM302 -14q-110 0 -184 65t-74 179q0 113 75.5 178.5t174.5 65.5q100 0 175.5 -64t75.5 -174q0 -115 -73.5 -182.5t-169.5 -67.5zM311 12q63 0 100 56.5t37 152.5q0 101 -44.5 164t-115.5 63q-67 0 -107 -55
t-40 -148q0 -104 47 -168.5t123 -64.5z" />
    <glyph glyph-name="divide" unicode="&#xf7;" horiz-adv-x="402" 
d="M194 335l-59 60l59 61l59 -61zM74 247v53h254v-53h-254zM194 96l-59 60l59 61l59 -61z" />
    <glyph glyph-name="oslash" unicode="&#xf8;" horiz-adv-x="589" 
d="M464 415q81 -67 81 -179q0 -115 -73.5 -182.5t-169.5 -67.5q-76 0 -134 30l-38 -51h-56l56 76q-86 68 -86 189q0 113 75.5 178.5t174.5 65.5q71 0 131 -33l41 55h58zM141 245q0 -84 33 -145l220 298q-44 50 -106 50q-67 0 -107 -55t-40 -148zM311 12q63 0 100 56.5
t37 152.5q0 77 -28 135l-219 -295q46 -49 110 -49z" />
    <glyph glyph-name="ugrave" unicode="&#xf9;" horiz-adv-x="557" 
d="M315 517l-164 127v6h100l79 -133h-15zM262 -15q-33 0 -62.5 8t-58.5 25.5t-46 53t-17 83.5v145q0 58 -7.5 86t-30.5 42l95 48h23v-319q0 -59 26.5 -94t80.5 -35q64 0 93.5 37t29.5 91v144q0 55 -9.5 84t-32.5 44l100 48h22v-390l40 -75v-11h-118v50q-42 -65 -128 -65z
" />
    <glyph glyph-name="uacute" unicode="&#xfa;" horiz-adv-x="559" 
d="M186 529l79 133h97v-6l-161 -127h-15zM257 -14q-31 0 -60 8t-57 25.5t-45 52.5t-17 83v136q0 58 -7.5 86t-30.5 42l97 48h23v-310q0 -58 26 -93t79 -35q64 0 93.5 36.5t29.5 90.5v135q0 55 -9.5 84t-32.5 44l102 48h22v-381l40 -75v-11h-120v50q-20 -30 -49.5 -47
t-83.5 -17z" />
    <glyph glyph-name="ucircumflex" unicode="&#xfb;" horiz-adv-x="559" 
d="M153 517v6l111 128l111 -128v-6h-40l-70 63l-72 -63h-40zM257 -14q-31 0 -60 8t-57 25.5t-45 52.5t-17 83v136q0 58 -7.5 86t-30.5 42l97 48h23v-310q0 -58 26 -93t79 -35q64 0 93.5 36.5t29.5 90.5v135q0 55 -9.5 84t-32.5 44l102 48h22v-381l40 -75v-11h-120v50
q-20 -30 -49.5 -47t-83.5 -17z" />
    <glyph glyph-name="udieresis" unicode="&#xfc;" horiz-adv-x="559" 
d="M190 534l-55 56l55 57l55 -57zM339 534l-55 56l55 57l55 -57zM257 -14q-31 0 -60 8t-57 25.5t-45 52.5t-17 83v136q0 58 -7.5 86t-30.5 42l97 48h23v-310q0 -58 26 -93t79 -35q64 0 93.5 36.5t29.5 90.5v135q0 55 -9.5 84t-32.5 44l102 48h22v-381l40 -75v-11h-120v50
q-20 -30 -49.5 -47t-83.5 -17z" />
    <glyph glyph-name="yacute" unicode="&#xfd;" horiz-adv-x="498" 
d="M189 529l79 133h97v-6l-161 -127h-15zM150 -210v11l43 61l56 138l-241 449v11h180v-9l-42 -70l146 -283l117 284l-46 68v10h129v-11l-33 -65l-216 -522l36 -62v-10h-129z" />
    <glyph glyph-name="thorn" unicode="&#xfe;" horiz-adv-x="579" 
d="M45 -162v11l43 75v624q0 95 -52 128l110 59h16v-310q28 24 60 36q42 15 91 15q100 0 164 -77q58 -68 58 -171q0 -105 -56 -169q-64 -76 -166 -76q-53 0 -96 18q-35 16 -55 36v-113l44 -75v-11h-161zM306 18q85 9 123 75q31 54 21 149q-8 79 -57.5 132t-129.5 45
q-44 -5 -75 -25q-17 -13 -26 -25v-293q31 -34 66 -47q35 -15 78 -11z" />
    <glyph glyph-name="ydieresis" unicode="&#xff;" horiz-adv-x="498" 
d="M217 534l-55 56l55 57l55 -57zM366 534l-55 56l55 57l55 -57zM150 -210v11l43 61l56 138l-241 449v11h180v-9l-42 -70l146 -283l117 284l-46 68v10h129v-11l-33 -65l-216 -522l36 -62v-10h-129z" />
    <glyph glyph-name="Amacron" unicode="&#x100;" horiz-adv-x="693" 
d="M456 861v-34h-220v34h220zM619 93l56 -84v-9h-202v9l49 84l-71 172h-258l-68 -172l63 -84v-9h-176v9l66 84l219 547l-30 74l92 27zM206 298h232l-119 288z" />
    <glyph glyph-name="amacron" unicode="&#x101;" horiz-adv-x="512" 
d="M145 552v34h220v-34h-220zM172 -14q-57 0 -94.5 28.5t-37.5 84.5q0 41 23.5 74t56 52t78.5 33t77.5 19.5t66.5 8.5v68q0 96 -81 96q-31 0 -52.5 -17.5t-21.5 -50.5q0 -32 31 -55l-87 -59q-38 38 -38 88q0 56 48.5 87t124.5 31q67 0 112.5 -31t45.5 -95v-262l49 -77v-9
h-131v45q-66 -59 -170 -59zM218 23q59 0 124 58v175q-39 -5 -69.5 -13.5t-63.5 -25t-51.5 -46.5t-18.5 -70q0 -37 21 -57.5t58 -20.5z" />
    <glyph glyph-name="Abreve" unicode="&#x102;" horiz-adv-x="693" 
d="M347 814q-46 0 -76.5 32.5t-30.5 80.5h34q0 -29 20 -48t53 -19t53 19t20 48h34q0 -48 -30.5 -80.5t-76.5 -32.5zM619 93l56 -84v-9h-202v9l49 84l-71 172h-258l-68 -172l63 -84v-9h-176v9l66 84l219 547l-30 74l92 27zM206 298h232l-119 288z" />
    <glyph glyph-name="abreve" unicode="&#x103;" horiz-adv-x="512" 
d="M256 539q-46 0 -76.5 32.5t-30.5 80.5h34q0 -29 20 -48t53 -19t53 19t20 48h34q0 -48 -30.5 -80.5t-76.5 -32.5zM172 -14q-57 0 -94.5 28.5t-37.5 84.5q0 41 23.5 74t56 52t78.5 33t77.5 19.5t66.5 8.5v68q0 96 -81 96q-31 0 -52.5 -17.5t-21.5 -50.5q0 -32 31 -55
l-87 -59q-38 38 -38 88q0 56 48.5 87t124.5 31q67 0 112.5 -31t45.5 -95v-262l49 -77v-9h-131v45q-66 -59 -170 -59zM218 23q59 0 124 58v175q-39 -5 -69.5 -13.5t-63.5 -25t-51.5 -46.5t-18.5 -70q0 -37 21 -57.5t58 -20.5z" />
    <glyph glyph-name="Aogonek" unicode="&#x104;" horiz-adv-x="693" 
d="M584 0q-61 -43 -61 -103q0 -18 10 -33.5t33 -15.5q34 0 67 39l25 -21q-44 -54 -99 -54q-44 0 -66 20.5t-22 56.5q0 56 74 111h-72v9l49 84l-71 172h-258l-68 -172l63 -84v-9h-176v9l66 84l219 547l-30 74l92 27l260 -648l56 -84v-9h-91zM206 298h232l-119 288z" />
    <glyph glyph-name="aogonek" unicode="&#x105;" horiz-adv-x="512" 
d="M373 0q-61 -43 -61 -103q0 -18 10 -33.5t33 -15.5q34 0 67 39l25 -21q-44 -54 -99 -54q-44 0 -66 20.5t-22 56.5q0 31 25 62.5t57 54.5v39q-66 -59 -170 -59q-57 0 -94.5 28.5t-37.5 84.5q0 41 23.5 74t56 52t78.5 33t77.5 19.5t66.5 8.5v68q0 96 -81 96
q-31 0 -52.5 -17.5t-21.5 -50.5q0 -32 31 -55l-87 -59q-38 38 -38 88q0 56 48.5 87t124.5 31q67 0 112.5 -31t45.5 -95v-262l49 -77v-9h-100zM218 23q59 0 124 58v175q-39 -5 -69.5 -13.5t-63.5 -25t-51.5 -46.5t-18.5 -70q0 -37 21 -57.5t58 -20.5z" />
    <glyph glyph-name="Cacute" unicode="&#x106;" horiz-adv-x="760" 
d="M301 804l79 133h97v-6l-161 -127h-15zM412 -14q-163 0 -265.5 106t-102.5 275q0 172 101.5 277t262.5 105q41 0 85 -10t92 -31.5t88 -64.5t59 -100l-92 -84q-4 40 -19.5 82.5t-43 85t-74.5 69.5t-105 27q-119 0 -190 -85.5t-71 -229.5q0 -164 80.5 -266t209.5 -102
q88 0 150 44t83 109h28v-193h-14l-59 43q-72 -57 -203 -57z" />
    <glyph glyph-name="cacute" unicode="&#x107;" horiz-adv-x="520" 
d="M185 529l79 133h97v-6l-161 -127h-15zM299 -14q-111 0 -183 68t-72 179q0 107 69.5 174t180.5 67q149 0 204 -111l-90 -34q0 59 -30.5 90.5t-84.5 31.5q-65 0 -109 -56t-44 -142q0 -95 51 -153t126 -58q99 0 159 84l28 -13q-55 -127 -205 -127z" />
    <glyph glyph-name="Cdotaccent" unicode="&#x10a;" horiz-adv-x="760" 
d="M380 809q-23 0 -39.5 16.5t-16.5 39.5t16.5 39.5t39.5 16.5t39.5 -16.5t16.5 -39.5t-16.5 -39.5t-39.5 -16.5zM412 -14q-163 0 -265.5 106t-102.5 275q0 172 101.5 277t262.5 105q41 0 85 -10t92 -31.5t88 -64.5t59 -100l-92 -84q-4 40 -19.5 82.5t-43 85t-74.5 69.5
t-105 27q-119 0 -190 -85.5t-71 -229.5q0 -164 80.5 -266t209.5 -102q88 0 150 44t83 109h28v-193h-14l-59 43q-72 -57 -203 -57z" />
    <glyph glyph-name="cdotaccent" unicode="&#x10b;" horiz-adv-x="520" 
d="M264 534q-23 0 -39.5 16.5t-16.5 39.5t16.5 39.5t39.5 16.5t39.5 -16.5t16.5 -39.5t-16.5 -39.5t-39.5 -16.5zM299 -14q-111 0 -183 68t-72 179q0 107 69.5 174t180.5 67q149 0 204 -111l-90 -34q0 59 -30.5 90.5t-84.5 31.5q-65 0 -109 -56t-44 -142q0 -95 51 -153
t126 -58q99 0 159 84l28 -13q-55 -127 -205 -127z" />
    <glyph glyph-name="Ccaron" unicode="&#x10c;" horiz-adv-x="760" 
d="M379 792l-111 128v6h40l72 -63l70 63h40v-6zM412 -14q-163 0 -265.5 106t-102.5 275q0 172 101.5 277t262.5 105q41 0 85 -10t92 -31.5t88 -64.5t59 -100l-92 -84q-4 40 -19.5 82.5t-43 85t-74.5 69.5t-105 27q-119 0 -190 -85.5t-71 -229.5q0 -164 80.5 -266t209.5 -102
q88 0 150 44t83 109h28v-193h-14l-59 43q-72 -57 -203 -57z" />
    <glyph glyph-name="ccaron" unicode="&#x10d;" horiz-adv-x="520" 
d="M263 517l-111 128v6h40l72 -63l70 63h40v-6zM299 -14q-111 0 -183 68t-72 179q0 107 69.5 174t180.5 67q149 0 204 -111l-90 -34q0 59 -30.5 90.5t-84.5 31.5q-65 0 -109 -56t-44 -142q0 -95 51 -153t126 -58q99 0 159 84l28 -13q-55 -127 -205 -127z" />
    <glyph glyph-name="Dcaron" unicode="&#x10e;" horiz-adv-x="720" 
d="M470 920l-111 -128l-111 128v6h40l72 -63l70 63h40v-6zM292 735q186 0 285 -100.5t99 -284.5q0 -95 -27.5 -168t-73 -114.5t-97.5 -61.5t-108 -20q-118 0 -159 71v-57h-145v9l58 84v550l-82 82v10h250zM354 27q100 0 161.5 75t61.5 248q0 155 -74.5 257t-210.5 102h-78
v-610q21 -35 58.5 -53.5t81.5 -18.5z" />
    <glyph glyph-name="dcaron" unicode="&#x10f;" horiz-adv-x="589" 
d="M266 -14q-98 0 -160 71.5t-62 175.5q0 105 63 173t172 68q80 0 131 -42v126q0 87 -49 118l110 59h20v-649l56 -76v-10h-137v37q-51 -51 -144 -51zM232 517l-111 128v6h40l72 -63l70 63h40v-6zM299 41q78 0 111 52v293q-49 53 -131 53q-68 0 -108.5 -49.5t-40.5 -133.5
q0 -99 45.5 -157t123.5 -58z" />
    <glyph glyph-name="Dcroat" unicode="&#x110;" horiz-adv-x="720" 
d="M292 735q186 0 285 -100.5t99 -284.5q0 -95 -27.5 -168t-73 -114.5t-97.5 -61.5t-108 -20q-118 0 -159 71v-57h-145v9l58 84v229h-57v32h57v289l-82 82v10h250zM354 27q100 0 161.5 75t61.5 248q0 155 -74.5 257t-210.5 102h-78v-355h77v-32h-77v-223q21 -35 58.5 -53.5
t81.5 -18.5z" />
    <glyph glyph-name="dcroat" unicode="&#x111;" horiz-adv-x="589" 
d="M491 86l56 -76v-10h-137v37q-51 -51 -144 -51q-98 0 -160 71.5t-62 175.5q0 105 63 173t172 68q80 0 131 -42v125h-102v32h100q-7 61 -47 87l110 59h20v-146h41v-32h-41v-471zM410 93v293q-49 53 -131 53q-68 0 -108.5 -49.5t-40.5 -133.5q0 -99 45.5 -157t123.5 -58
t111 52z" />
    <glyph glyph-name="Emacron" unicode="&#x112;" horiz-adv-x="654" 
d="M412 861v-34h-220v34h220zM524 147l90 -97q-40 -33 -81 -42.5t-128 -7.5h-357v9l63 83v550l-77 84v9h498l36 -161h-16l-125 135h-226v-287h165l72 51h10v-152h-10l-72 69h-165v-364h173q64 0 101 38t49 83z" />
    <glyph glyph-name="emacron" unicode="&#x113;" horiz-adv-x="527" 
d="M373 586v-34h-220v34h220zM490 268v-16h-351q3 -85 47.5 -149t128.5 -64q95 0 142 80l29 -12q-55 -121 -191 -121q-113 0 -182 69.5t-69 180.5q0 28 6 57.5t22.5 62.5t42 58t68 41.5t96.5 17.5q100 0 155.5 -53.5t55.5 -151.5zM276 451q-64 0 -99.5 -49t-37.5 -126
l262 13q1 73 -35.5 117.5t-89.5 44.5z" />
    <glyph glyph-name="Edotaccent" unicode="&#x116;" horiz-adv-x="654" 
d="M303 809q-23 0 -39.5 16.5t-16.5 39.5t16.5 39.5t39.5 16.5t39.5 -16.5t16.5 -39.5t-16.5 -39.5t-39.5 -16.5zM524 147l90 -97q-40 -33 -81 -42.5t-128 -7.5h-357v9l63 83v550l-77 84v9h498l36 -161h-16l-125 135h-226v-287h165l72 51h10v-152h-10l-72 69h-165v-364h173
q64 0 101 38t49 83z" />
    <glyph glyph-name="edotaccent" unicode="&#x117;" horiz-adv-x="527" 
d="M264 534q-23 0 -39.5 16.5t-16.5 39.5t16.5 39.5t39.5 16.5t39.5 -16.5t16.5 -39.5t-16.5 -39.5t-39.5 -16.5zM490 268v-16h-351q3 -85 47.5 -149t128.5 -64q95 0 142 80l29 -12q-55 -121 -191 -121q-113 0 -182 69.5t-69 180.5q0 28 6 57.5t22.5 62.5t42 58t68 41.5
t96.5 17.5q100 0 155.5 -53.5t55.5 -151.5zM276 451q-64 0 -99.5 -49t-37.5 -126l262 13q1 73 -35.5 117.5t-89.5 44.5z" />
    <glyph glyph-name="Eogonek" unicode="&#x118;" horiz-adv-x="654" 
d="M358 0q-61 -43 -61 -103q0 -18 10 -33.5t33 -15.5q34 0 67 39l25 -21q-44 -54 -99 -54q-44 0 -66 20.5t-22 56.5q0 56 74 111h-271v9l63 83v550l-77 84v9h498l36 -161h-16l-125 135h-226v-287h165l72 51h10v-152h-10l-72 69h-165v-364h173q64 0 101 38t49 83l90 -97
q-40 -33 -81 -42.5t-128 -7.5h-47z" />
    <glyph glyph-name="eogonek" unicode="&#x119;" horiz-adv-x="527" 
d="M490 268v-16h-351q3 -85 47.5 -149t128.5 -64q95 0 142 80l29 -12q-55 -121 -191 -121h-16q-44 -38 -44 -89q0 -18 10 -33.5t33 -15.5q34 0 67 39l25 -21q-44 -54 -99 -54q-44 0 -66 20.5t-22 56.5q0 50 61 101q-92 15 -146 81.5t-54 164.5q0 28 6 57.5t22.5 62.5t42 58
t68 41.5t96.5 17.5q100 0 155.5 -53.5t55.5 -151.5zM276 451q-64 0 -99.5 -49t-37.5 -126l262 13q1 73 -35.5 117.5t-89.5 44.5z" />
    <glyph glyph-name="Ecaron" unicode="&#x11a;" horiz-adv-x="654" 
d="M413 920l-111 -128l-111 128v6h40l72 -63l70 63h40v-6zM524 147l90 -97q-40 -33 -81 -42.5t-128 -7.5h-357v9l63 83v550l-77 84v9h498l36 -161h-16l-125 135h-226v-287h165l72 51h10v-152h-10l-72 69h-165v-364h173q64 0 101 38t49 83z" />
    <glyph glyph-name="ecaron" unicode="&#x11b;" horiz-adv-x="527" 
d="M374 645l-111 -128l-111 128v6h40l72 -63l70 63h40v-6zM490 268v-16h-351q3 -85 47.5 -149t128.5 -64q95 0 142 80l29 -12q-55 -121 -191 -121q-113 0 -182 69.5t-69 180.5q0 28 6 57.5t22.5 62.5t42 58t68 41.5t96.5 17.5q100 0 155.5 -53.5t55.5 -151.5zM276 451
q-64 0 -99.5 -49t-37.5 -126l262 13q1 73 -35.5 117.5t-89.5 44.5z" />
    <glyph glyph-name="Gbreve" unicode="&#x11e;" horiz-adv-x="782" 
d="M391 814q-46 0 -76.5 32.5t-30.5 80.5h34q0 -29 20 -48t53 -19t53 19t20 48h34q0 -48 -30.5 -80.5t-76.5 -32.5zM501 334v11h220v-345h-14l-53 70q-89 -84 -238 -84q-159 0 -265.5 109.5t-106.5 280.5q0 165 101.5 269t262.5 104q41 0 85 -10t92 -31.5t88 -64.5t59 -100
l-92 -84q-3 31 -12.5 64.5t-30 70t-47.5 64.5t-69 46.5t-91 18.5q-116 0 -184.5 -85t-68.5 -230q0 -160 80.5 -260.5t204.5 -100.5q111 0 169.5 59.5t58.5 146.5z" />
    <glyph glyph-name="gbreve" unicode="&#x11f;" horiz-adv-x="557" 
d="M277 539q-46 0 -76.5 32.5t-30.5 80.5h34q0 -29 20 -48t53 -19t53 19t20 48h34q0 -48 -30.5 -80.5t-76.5 -32.5zM518 467v-107l-84 22q17 -34 17 -74q0 -78 -54 -126t-140 -48q-36 0 -66 9l-40 -77q52 0 87.5 -1.5t79.5 -6t72.5 -14t55 -24.5t39 -39t12.5 -56
q0 -43 -21 -73.5t-55.5 -46t-69.5 -22.5t-73 -7q-144 0 -234 76l75 149q-49 20 -49 68q0 31 26 53.5t70 28.5q-49 20 -77 61t-28 95q0 74 54.5 120.5t141.5 46.5q96 0 150 -56l94 49h17zM263 162q49 0 75.5 34.5t26.5 87.5q0 59 -30 110.5t-84 51.5q-48 0 -76 -33.5
t-28 -84.5q0 -60 31 -113t85 -53zM428 -105q0 41 -32.5 61.5t-73 23t-98.5 5.5t-88 11q-10 -31 -10 -67q0 -59 40.5 -91t116.5 -32q22 0 44 3.5t46.5 12t39.5 27.5t15 46z" />
    <glyph glyph-name="Gdotaccent" unicode="&#x120;" horiz-adv-x="782" 
d="M391 809q-23 0 -39.5 16.5t-16.5 39.5t16.5 39.5t39.5 16.5t39.5 -16.5t16.5 -39.5t-16.5 -39.5t-39.5 -16.5zM501 334v11h220v-345h-14l-53 70q-89 -84 -238 -84q-159 0 -265.5 109.5t-106.5 280.5q0 165 101.5 269t262.5 104q41 0 85 -10t92 -31.5t88 -64.5t59 -100
l-92 -84q-3 31 -12.5 64.5t-30 70t-47.5 64.5t-69 46.5t-91 18.5q-116 0 -184.5 -85t-68.5 -230q0 -160 80.5 -260.5t204.5 -100.5q111 0 169.5 59.5t58.5 146.5z" />
    <glyph glyph-name="gdotaccent" unicode="&#x121;" horiz-adv-x="557" 
d="M277 534q-23 0 -39.5 16.5t-16.5 39.5t16.5 39.5t39.5 16.5t39.5 -16.5t16.5 -39.5t-16.5 -39.5t-39.5 -16.5zM518 467v-107l-84 22q17 -34 17 -74q0 -78 -54 -126t-140 -48q-36 0 -66 9l-40 -77q52 0 87.5 -1.5t79.5 -6t72.5 -14t55 -24.5t39 -39t12.5 -56
q0 -43 -21 -73.5t-55.5 -46t-69.5 -22.5t-73 -7q-144 0 -234 76l75 149q-49 20 -49 68q0 31 26 53.5t70 28.5q-49 20 -77 61t-28 95q0 74 54.5 120.5t141.5 46.5q96 0 150 -56l94 49h17zM263 162q49 0 75.5 34.5t26.5 87.5q0 59 -30 110.5t-84 51.5q-48 0 -76 -33.5
t-28 -84.5q0 -60 31 -113t85 -53zM428 -105q0 41 -32.5 61.5t-73 23t-98.5 5.5t-88 11q-10 -31 -10 -67q0 -59 40.5 -91t116.5 -32q22 0 44 3.5t46.5 12t39.5 27.5t15 46z" />
    <glyph glyph-name="Gcommaaccent" unicode="&#x122;" horiz-adv-x="782" 
d="M501 334v11h220v-345h-14l-53 70q-89 -84 -238 -84q-159 0 -265.5 109.5t-106.5 280.5q0 165 101.5 269t262.5 104q41 0 85 -10t92 -31.5t88 -64.5t59 -100l-92 -84q-3 31 -12.5 64.5t-30 70t-47.5 64.5t-69 46.5t-91 18.5q-116 0 -184.5 -85t-68.5 -230
q0 -160 80.5 -260.5t204.5 -100.5q111 0 169.5 59.5t58.5 146.5zM333 -108l57 55l57 -55l-53 -170h-15q2 14 4 37t-9 69t-41 64z" />
    <glyph glyph-name="gcommaaccent" unicode="&#x123;" horiz-adv-x="557" 
d="M337 593l-57 -55l-57 55l53 170h15q-2 -14 -4 -37t9 -69t41 -64zM518 467v-107l-84 22q17 -34 17 -74q0 -78 -54 -126t-140 -48q-36 0 -66 9l-40 -77q52 0 87.5 -1.5t79.5 -6t72.5 -14t55 -24.5t39 -39t12.5 -56q0 -43 -21 -73.5t-55.5 -46t-69.5 -22.5t-73 -7
q-144 0 -234 76l75 149q-49 20 -49 68q0 31 26 53.5t70 28.5q-49 20 -77 61t-28 95q0 74 54.5 120.5t141.5 46.5q96 0 150 -56l94 49h17zM263 162q49 0 75.5 34.5t26.5 87.5q0 59 -30 110.5t-84 51.5q-48 0 -76 -33.5t-28 -84.5q0 -60 31 -113t85 -53zM428 -105
q0 41 -32.5 61.5t-73 23t-98.5 5.5t-88 11q-10 -31 -10 -67q0 -59 40.5 -91t116.5 -32q22 0 44 3.5t46.5 12t39.5 27.5t15 46z" />
    <glyph glyph-name="Hbar" unicode="&#x126;" horiz-adv-x="752" 
d="M703 516h-61v-423l60 -83v-10h-210v10l60 83v268h-352v-268l60 -83v-10h-210v10l60 83v423h-60v32h60v97l-56 81v9h202v-9l-56 -81v-97h352v97l-56 81v9h202v-9l-56 -81v-97h61v-32zM552 393v123h-352v-123h352z" />
    <glyph glyph-name="hbar" unicode="&#x127;" horiz-adv-x="575" 
d="M487 86l48 -77v-9h-178v9l48 77v128h-223v-128l48 -77v-9h-178v9l48 77v477q0 96 -50 129l110 59h22v-354q49 77 145 77q24 0 49 -8t51.5 -25.5t43 -53t16.5 -83.5v-218zM405 246v46q0 136 -105 136q-50 0 -84 -34t-34 -81v-67h223z" />
    <glyph glyph-name="Imacron" unicode="&#x12a;" horiz-adv-x="313" 
d="M46 827v34h220v-34h-220zM56 0v10l56 83v552l-39 80v10h167v-10l-38 -80v-552l55 -83v-10h-201z" />
    <glyph glyph-name="imacron" unicode="&#x12b;" horiz-adv-x="309" 
d="M50 552v34h220v-34h-220zM75 0v9l51 77v200q0 96 -50 129l109 59h23v-388l50 -77v-9h-183z" />
    <glyph glyph-name="Iogonek" unicode="&#x12e;" horiz-adv-x="313" 
d="M179 0q-61 -43 -61 -103q0 -18 10 -33.5t33 -15.5q34 0 67 39l25 -21q-44 -54 -99 -54q-44 0 -66 20.5t-22 56.5q0 56 74 111h-84v10l56 83v552l-39 80v10h167v-10l-38 -80v-552l55 -83v-10h-78z" />
    <glyph glyph-name="iogonek" unicode="&#x12f;" horiz-adv-x="264" 
d="M132 534q-23 0 -39.5 16.5t-16.5 39.5t16.5 39.5t39.5 16.5t39.5 -16.5t16.5 -39.5t-16.5 -39.5t-39.5 -16.5zM209 -113l25 -21q-44 -54 -99 -54q-44 0 -66 20.5t-22 56.5q0 56 74 111h-75v9l51 77v200q0 96 -50 129l109 59h23v-388l50 -77v-9h-69q-61 -43 -61 -103
q0 -18 10 -33.5t33 -15.5q34 0 67 39z" />
    <glyph glyph-name="Idotaccent" unicode="&#x130;" horiz-adv-x="313" 
d="M157 809q-23 0 -39.5 16.5t-16.5 39.5t16.5 39.5t39.5 16.5t39.5 -16.5t16.5 -39.5t-16.5 -39.5t-39.5 -16.5zM56 0v10l56 83v552l-39 80v10h167v-10l-38 -80v-552l55 -83v-10h-201z" />
    <glyph glyph-name="dotlessi" unicode="&#x131;" horiz-adv-x="264" 
d="M46 0v9l51 77v200q0 96 -50 129l109 59h23v-388l50 -77v-9h-183z" />
    <glyph glyph-name="Kcommaaccent" unicode="&#x136;" horiz-adv-x="651" 
d="M338 423l281 -455h-15l-125 56l-236 383l-43 -39v-275l60 -84v-9h-210v9l60 84v550l-56 82v10h202v-10l-56 -82v-233l258 236l-40 80v9h190v-10l-102 -82l-245 -220h77zM268 -108l57 55l57 -55l-53 -170h-15q2 14 4 37t-9 69t-41 64z" />
    <glyph glyph-name="kcommaaccent" unicode="&#x137;" horiz-adv-x="538" 
d="M45 0v9l50 77v461q0 98 -49 129l108 59h23v-460l174 121l-31 52v12h169v-14l-223 -153l179 -207l72 -76v-10h-205v11l40 73l-144 170l-31 -23v-145l49 -77v-9h-181zM255 -278q2 14 4 37t-9 69t-41 64l57 55l57 -55l-53 -170h-15z" />
    <glyph glyph-name="Lacute" unicode="&#x139;" horiz-adv-x="581" 
d="M74 804l79 133h97v-6l-161 -127h-15zM53 0v9l53 83v553l-56 79v11h202v-11l-56 -79v-619h136q64 0 102 40.5t45 83.5l90 -67q-7 -25 -23 -41t-68 -29t-140 -13h-285z" />
    <glyph glyph-name="lacute" unicode="&#x13a;" horiz-adv-x="276" 
d="M59 804l79 133h97v-6l-161 -127h-15zM45 0v10l52 76v461q0 96 -50 129l110 59h22v-649l50 -77v-9h-184z" />
    <glyph glyph-name="Lcommaaccent" unicode="&#x13b;" horiz-adv-x="581" 
d="M53 0v9l53 83v553l-56 79v11h202v-11l-56 -79v-619h136q64 0 102 40.5t45 83.5l90 -67q-7 -25 -23 -41t-68 -29t-140 -13h-285zM279 -278q2 14 4 37t-9 69t-41 64l57 55l57 -55l-53 -170h-15z" />
    <glyph glyph-name="lcommaaccent" unicode="&#x13c;" horiz-adv-x="276" 
d="M45 0v10l52 76v461q0 96 -50 129l110 59h22v-649l50 -77v-9h-184zM126 -278q2 14 4 37t-9 69t-41 64l57 55l57 -55l-53 -170h-15z" />
    <glyph glyph-name="Lcaron" unicode="&#x13d;" horiz-adv-x="581" 
d="M152 792l-111 128v6h40l72 -63l70 63h40v-6zM53 0v9l53 83v553l-56 79v11h202v-11l-56 -79v-619h136q64 0 102 40.5t45 83.5l90 -67q-7 -25 -23 -41t-68 -29t-140 -13h-285z" />
    <glyph glyph-name="lcaron" unicode="&#x13e;" horiz-adv-x="314" 
d="M156 792l-111 128v6h40l72 -63l70 63h40v-6zM64 0v10l52 76v461q0 96 -50 129l110 59h22v-649l50 -77v-9h-184z" />
    <glyph glyph-name="Lslash" unicode="&#x141;" horiz-adv-x="593" 
d="M491 150l90 -67q-7 -25 -23 -41t-68 -29t-140 -13h-285v9l53 83v182l-68 -24v41l68 24v330l-56 79v11h202v-11l-56 -79v-302l138 50v-41l-138 -50v-276h136q64 0 102 40.5t45 83.5z" />
    <glyph glyph-name="lslash" unicode="&#x142;" horiz-adv-x="298" 
d="M278 352l-91 -32v-234l50 -77v-9h-184v10l52 76v210l-85 -30v42l85 30v209q0 96 -50 129l110 59h22v-373l91 32v-42z" />
    <glyph glyph-name="Nacute" unicode="&#x143;" horiz-adv-x="720" 
d="M281 804l79 133h97v-6l-161 -127h-15zM582 -6l-434 596v-497l62 -84v-9h-168v9l62 84v549l-62 84v9h113l419 -566v475l-60 82v9h164v-9l-60 -82v-650h-36z" />
    <glyph glyph-name="nacute" unicode="&#x144;" horiz-adv-x="588" 
d="M215 529l79 133h97v-6l-161 -127h-15zM59 0v9l48 77v206q0 97 -50 128l110 48h22v-71q49 77 143 77q26 0 52.5 -8t53.5 -25.5t44.5 -53t17.5 -83.5v-218l48 -77v-9h-178v9l48 77v206q0 136 -111 136q-52 0 -85 -35.5t-33 -79.5v-227l48 -77v-9h-178z" />
    <glyph glyph-name="Ncommaaccent" unicode="&#x145;" horiz-adv-x="720" 
d="M582 -6l-434 596v-497l62 -84v-9h-168v9l62 84v549l-62 84v9h113l419 -566v475l-60 82v9h164v-9l-60 -82v-650h-36zM348 -278q2 14 4 37t-9 69t-41 64l57 55l57 -55l-53 -170h-15z" />
    <glyph glyph-name="ncommaaccent" unicode="&#x146;" horiz-adv-x="588" 
d="M59 0v9l48 77v206q0 97 -50 128l110 48h22v-71q49 77 143 77q26 0 52.5 -8t53.5 -25.5t44.5 -53t17.5 -83.5v-218l48 -77v-9h-178v9l48 77v206q0 136 -111 136q-52 0 -85 -35.5t-33 -79.5v-227l48 -77v-9h-178zM282 -278q2 14 4 37t-9 69t-41 64l57 55l57 -55l-53 -170
h-15z" />
    <glyph glyph-name="Ncaron" unicode="&#x147;" horiz-adv-x="720" 
d="M359 792l-111 128v6h40l72 -63l70 63h40v-6zM582 -6l-434 596v-497l62 -84v-9h-168v9l62 84v549l-62 84v9h113l419 -566v475l-60 82v9h164v-9l-60 -82v-650h-36z" />
    <glyph glyph-name="ncaron" unicode="&#x148;" horiz-adv-x="588" 
d="M293 517l-111 128v6h40l72 -63l70 63h40v-6zM59 0v9l48 77v206q0 97 -50 128l110 48h22v-71q49 77 143 77q26 0 52.5 -8t53.5 -25.5t44.5 -53t17.5 -83.5v-218l48 -77v-9h-178v9l48 77v206q0 136 -111 136q-52 0 -85 -35.5t-33 -79.5v-227l48 -77v-9h-178z" />
    <glyph glyph-name="Eng" unicode="&#x14a;" horiz-adv-x="720" 
d="M678 726l-60 -82v-633l6 -17q0 -204 -131 -204v14q44 9 65.5 54t20.5 136v4l-431 592v-497l62 -84v-9h-168v9l62 84v549l-62 84v9h113l419 -566v475l-60 82v9h164v-9z" />
    <glyph glyph-name="eng" unicode="&#x14b;" horiz-adv-x="559" 
d="M340 -210v14q42 9 60 52.5t18 137.5v298q0 136 -111 136q-52 0 -85 -35.5t-33 -79.5v-227l48 -77v-9h-178v9l48 77v206q0 97 -50 128l110 48h22v-71q49 77 143 77q26 0 52.5 -8t53.5 -25.5t44.5 -53t17.5 -83.5v-299q0 -98 -37.5 -156.5t-122.5 -58.5z" />
    <glyph glyph-name="Omacron" unicode="&#x14c;" horiz-adv-x="855" 
d="M317 827v34h220v-34h-220zM427 -14q-171 0 -277 107.5t-106 273.5q0 167 105.5 274.5t277.5 107.5q171 0 277.5 -107t106.5 -275q0 -165 -107 -273t-277 -108zM443 12q120 0 192.5 84.5t72.5 218.5q0 168 -90 287.5t-210 119.5q-122 0 -192 -86t-70 -218
q0 -165 87.5 -285.5t209.5 -120.5z" />
    <glyph glyph-name="omacron" unicode="&#x14d;" horiz-adv-x="589" 
d="M184 552v34h220v-34h-220zM302 -14q-110 0 -184 65t-74 179q0 113 75.5 178.5t174.5 65.5q100 0 175.5 -64t75.5 -174q0 -115 -73.5 -182.5t-169.5 -67.5zM311 12q63 0 100 56.5t37 152.5q0 101 -44.5 164t-115.5 63q-67 0 -107 -55t-40 -148q0 -104 47 -168.5t123 -64.5
z" />
    <glyph glyph-name="Ohungarumlaut" unicode="&#x150;" horiz-adv-x="855" 
d="M457 793l55 133h100v-6l-140 -127h-15zM335 792l55 133h100v-6l-140 -127h-15zM427 -14q-171 0 -277 107.5t-106 273.5q0 167 105.5 274.5t277.5 107.5q171 0 277.5 -107t106.5 -275q0 -165 -107 -273t-277 -108zM443 12q120 0 192.5 84.5t72.5 218.5q0 168 -90 287.5
t-210 119.5q-122 0 -192 -86t-70 -218q0 -165 87.5 -285.5t209.5 -120.5z" />
    <glyph glyph-name="ohungarumlaut" unicode="&#x151;" horiz-adv-x="589" 
d="M324 518l55 133h100v-6l-140 -127h-15zM202 517l55 133h100v-6l-140 -127h-15zM302 -14q-110 0 -184 65t-74 179q0 113 75.5 178.5t174.5 65.5q100 0 175.5 -64t75.5 -174q0 -115 -73.5 -182.5t-169.5 -67.5zM311 12q63 0 100 56.5t37 152.5q0 101 -44.5 164t-115.5 63
q-67 0 -107 -55t-40 -148q0 -104 47 -168.5t123 -64.5z" />
    <glyph glyph-name="OE" unicode="&#x152;" horiz-adv-x="1185" 
d="M1145 50q-39 -32 -79 -41t-130 -9h-398q-53 -14 -111 -14q-171 0 -277 107.5t-106 273.5q0 167 105 274.5t274 107.5q51 0 96 -14h544l36 -161h-16l-125 135h-226v-286h165l72 49v1h10v-152h-10l-72 69h-165v-364h173q64 0 101 38t49 83zM642 104v495q-73 123 -234 123
q-124 0 -193 -89.5t-69 -238.5q0 -98 36 -184.5t105.5 -142t155.5 -55.5q126 0 199 92z" />
    <glyph glyph-name="oe" unicode="&#x153;" horiz-adv-x="933" 
d="M302 -14q-110 0 -184 65t-74 179q0 113 75.5 178.5t174.5 65.5q60 0 118.5 -30t80.5 -82q53 110 192 111q100 0 155.5 -53.5t55.5 -151.5v-16h-351q3 -85 47.5 -149t128.5 -64q95 0 142 80l29 -12q-55 -121 -191 -121q-68 0 -124 30.5t-80 83.5q-24 -53 -80 -83.5
t-115 -30.5zM545 276l262 13q-1 44 -13.5 77t-32.5 50.5t-40.5 26t-40.5 8.5q-62 0 -97.5 -49t-37.5 -126zM311 12q63 0 100 56.5t37 152.5q0 101 -44.5 164t-115.5 63q-67 0 -107 -55t-40 -148q0 -104 47 -168.5t123 -64.5z" />
    <glyph glyph-name="Racute" unicode="&#x154;" horiz-adv-x="615" 
d="M405 931l-161 -127h-15l79 133h97v-6zM366 347l237 -374h-16l-119 49l-231 357h-31v-286l60 -84v-9h-210v9l60 84v550l-66 83v9h209q32 0 62.5 -3t70.5 -14.5t68.5 -30t49 -53t20.5 -80.5q0 -44 -20.5 -77.5t-48.5 -51t-66.5 -28.5t-65 -14t-53.5 -4zM206 709v-304h66
q172 0 172 154q0 150 -187 150h-51z" />
    <glyph glyph-name="racute" unicode="&#x155;" horiz-adv-x="442" 
d="M142 529l79 133h97v-6l-161 -127h-15zM44 0v9l49 77v205q0 96 -51 128l110 48h23v-57q46 64 130 64q86 0 127 -63l-70 -96l-15 9q0 105 -81 105q-40 0 -65.5 -31.5t-25.5 -81.5v-230l48 -77v-9h-179z" />
    <glyph glyph-name="Rcommaaccent" unicode="&#x156;" horiz-adv-x="615" 
d="M366 347l237 -374h-16l-119 49l-231 357h-31v-286l60 -84v-9h-210v9l60 84v550l-66 83v9h209q32 0 62.5 -3t70.5 -14.5t68.5 -30t49 -53t20.5 -80.5q0 -44 -20.5 -77.5t-48.5 -51t-66.5 -28.5t-65 -14t-53.5 -4zM206 709v-304h66q172 0 172 154q0 150 -187 150h-51z
M250 -108l57 55l57 -55l-53 -170h-15q2 14 4 37t-9 69t-41 64z" />
    <glyph glyph-name="rcommaaccent" unicode="&#x157;" horiz-adv-x="442" 
d="M44 0v9l49 77v205q0 96 -51 128l110 48h23v-57q46 64 130 64q86 0 127 -63l-70 -96l-15 9q0 105 -81 105q-40 0 -65.5 -31.5t-25.5 -81.5v-230l48 -77v-9h-179zM209 -278q2 14 4 37t-9 69t-41 64l57 55l57 -55l-53 -170h-15z" />
    <glyph glyph-name="Rcaron" unicode="&#x158;" horiz-adv-x="615" 
d="M418 920l-111 -128l-111 128v6h40l72 -63l70 63h40v-6zM366 347l237 -374h-16l-119 49l-231 357h-31v-286l60 -84v-9h-210v9l60 84v550l-66 83v9h209q32 0 62.5 -3t70.5 -14.5t68.5 -30t49 -53t20.5 -80.5q0 -44 -20.5 -77.5t-48.5 -51t-66.5 -28.5t-65 -14t-53.5 -4z
M206 709v-304h66q172 0 172 154q0 150 -187 150h-51z" />
    <glyph glyph-name="rcaron" unicode="&#x159;" horiz-adv-x="442" 
d="M220 517l-111 128v6h40l72 -63l70 63h40v-6zM44 0v9l49 77v205q0 96 -51 128l110 48h23v-57q46 64 130 64q86 0 127 -63l-70 -96l-15 9q0 105 -81 105q-40 0 -65.5 -31.5t-25.5 -81.5v-230l48 -77v-9h-179z" />
    <glyph glyph-name="Sacute" unicode="&#x15a;" horiz-adv-x="598" 
d="M220 804l79 133h97v-6l-161 -127h-15zM290 -14q-96 0 -147 45l-71 -31h-12v196h29q8 -42 24.5 -74t38.5 -50t42.5 -29.5t44 -16t34 -5.5t21.5 -1q75 0 126 34t51 100q0 44 -22 77t-57 53.5t-77.5 38t-85.5 37t-78 43.5t-57 64.5t-22 94.5q0 43 14.5 76.5t37 53.5t53 33.5
t59 18.5t58.5 5q29 0 58 -5t64 -17t65 -39t47 -66l-95 -66h-11q20 67 -21 115.5t-113 48.5q-60 0 -100 -33.5t-40 -88.5q0 -53 41.5 -89.5t100.5 -60.5t118 -50.5t100.5 -74.5t41.5 -116q0 -105 -71.5 -163t-188.5 -58z" />
    <glyph glyph-name="sacute" unicode="&#x15b;" horiz-adv-x="452" 
d="M150 529l79 133h97v-6l-161 -127h-15zM230 -14q-72 0 -113 28l-52 -21h-13v135h23q17 -53 56.5 -84t90.5 -31q52 0 78 22.5t26 60.5q0 31 -28.5 54t-69 39.5t-81 34.5t-69 50.5t-28.5 77.5q0 57 49 89.5t119 32.5q138 0 182 -85l-91 -67l-13 9q7 17 7 32q0 33 -22 58
t-66 25q-36 0 -59.5 -19t-23.5 -54q0 -33 29.5 -57t71 -40t83 -34t71 -50t29.5 -76q0 -63 -52.5 -96.5t-133.5 -33.5z" />
    <glyph glyph-name="Scedilla" unicode="&#x15e;" horiz-adv-x="598" 
d="M550 207q0 -97 -60 -153.5t-162 -65.5l-23 -34q84 -20 84 -76q0 -72 -104 -72q-23 0 -43 5l1 17q12 -3 32 -3q55 0 55 44q0 43 -83 52v8l48 57h-5q-96 0 -147 45l-71 -31h-12v196h29q8 -42 24.5 -74t38.5 -50t42.5 -29.5t44 -16t34 -5.5t21.5 -1q75 0 126 34t51 100
q0 44 -22 77t-57 53.5t-77.5 38t-85.5 37t-78 43.5t-57 64.5t-22 94.5q0 43 14.5 76.5t37 53.5t53 33.5t59 18.5t58.5 5q29 0 58 -5t64 -17t65 -39t47 -66l-95 -66h-11q20 67 -21 115.5t-113 48.5q-60 0 -100 -33.5t-40 -88.5q0 -53 41.5 -89.5t100.5 -60.5t118 -50.5
t100.5 -74.5t41.5 -116z" />
    <glyph glyph-name="scedilla" unicode="&#x15f;" horiz-adv-x="452" 
d="M416 116q0 -57 -44 -90t-114 -39l-23 -33q84 -20 84 -76q0 -72 -104 -72q-23 0 -43 5l1 17q12 -3 32 -3q55 0 55 44q0 43 -83 52v8l48 57q-68 1 -108 28l-52 -21h-13v135h23q17 -53 56.5 -84t90.5 -31q52 0 78 22.5t26 60.5q0 31 -28.5 54t-69 39.5t-81 34.5t-69 50.5
t-28.5 77.5q0 57 49 89.5t119 32.5q138 0 182 -85l-91 -67l-13 9q7 17 7 32q0 33 -22 58t-66 25q-36 0 -59.5 -19t-23.5 -54q0 -33 29.5 -57t71 -40t83 -34t71 -50t29.5 -76z" />
    <glyph glyph-name="Scaron" unicode="&#x160;" horiz-adv-x="598" 
d="M281 780l-95 122v6h31l74 -57l72 57h33v-6l-95 -122h-20zM290 -14q-96 0 -147 45l-71 -31h-12v196h29q8 -42 24.5 -74t38.5 -50t42.5 -29.5t44 -16t34 -5.5t21.5 -1q75 0 126 34t51 100q0 44 -22 77t-57 53.5t-77.5 38t-85.5 37t-78 43.5t-57 64.5t-22 94.5
q0 43 14.5 76.5t37 53.5t53 33.5t59 18.5t58.5 5q29 0 58 -5t64 -17t65 -39t47 -66l-95 -66h-11q20 67 -21 115.5t-113 48.5q-60 0 -100 -33.5t-40 -88.5q0 -53 41.5 -89.5t100.5 -60.5t118 -50.5t100.5 -74.5t41.5 -116q0 -105 -71.5 -163t-188.5 -58z" />
    <glyph glyph-name="scaron" unicode="&#x161;" horiz-adv-x="452" 
d="M202 524l-95 122v6h33l72 -57l74 57h31v-6l-95 -122h-20zM230 -14q-72 0 -113 28l-52 -21h-13v135h23q17 -53 56.5 -84t90.5 -31q52 0 78 22.5t26 60.5q0 31 -28.5 54t-69 39.5t-81 34.5t-69 50.5t-28.5 77.5q0 57 49 89.5t119 32.5q138 0 182 -85l-91 -67l-13 9
q7 17 7 32q0 33 -22 58t-66 25q-36 0 -59.5 -19t-23.5 -54q0 -33 29.5 -57t71 -40t83 -34t71 -50t29.5 -76q0 -63 -52.5 -96.5t-133.5 -33.5z" />
    <glyph glyph-name="uni0162" unicode="&#x162;" horiz-adv-x="646" 
d="M596 735l32 -161h-16l-125 135h-119v-616l62 -84v-9h-69l-32 -46q84 -20 84 -76q0 -72 -104 -72q-23 0 -43 5l1 17q12 -3 32 -3q55 0 55 44q0 43 -83 52v8l60 71h-115v9l62 84v616h-119l-125 -135h-16l32 161h546z" />
    <glyph glyph-name="uni0163" unicode="&#x163;" horiz-adv-x="349" 
d="M216 -14q-12 0 -17 1l-23 -33q84 -20 84 -76q0 -72 -104 -72q-23 0 -43 5l1 17q12 -3 32 -3q55 0 55 44q0 43 -83 52v8l52 62q-80 18 -80 113v324h-64v11l128 169h18v-148h139v-32h-139v-332q0 -31 20 -48t49 -17t47 16t24 34l23 -9q-6 -30 -36.5 -58t-82.5 -28z" />
    <glyph glyph-name="Tcaron" unicode="&#x164;" horiz-adv-x="646" 
d="M322 792l-111 128v6h40l72 -63l70 63h40v-6zM216 0v9l62 84v616h-119l-125 -135h-16l32 161h546l32 -161h-16l-125 135h-119v-616l62 -84v-9h-214z" />
    <glyph glyph-name="tcaron" unicode="&#x165;" horiz-adv-x="349" 
d="M161 665l-111 128v6h40l72 -63l70 63h40v-6zM216 -14q-126 0 -126 118v324h-64v11l128 169h18v-148h139v-32h-139v-332q0 -31 20 -48t49 -17t47 16t24 34l23 -9q-6 -30 -36.5 -58t-82.5 -28z" />
    <glyph glyph-name="Tbar" unicode="&#x166;" horiz-adv-x="646" 
d="M487 709h-119v-325h123v-32h-123v-259l62 -84v-9h-214v9l62 84v259h-123v32h123v325h-119l-125 -135h-16l32 161h546l32 -161h-16z" />
    <glyph glyph-name="tbar" unicode="&#x167;" horiz-adv-x="349" 
d="M312 81l23 -9q-6 -30 -36.5 -58t-82.5 -28q-126 0 -126 118v205h-63v32h63v87h-64v11l128 169h18v-148h139v-32h-139v-87h79v-32h-79v-213q0 -31 20 -48t49 -17t47 16t24 34z" />
    <glyph glyph-name="Umacron" unicode="&#x16a;" horiz-adv-x="711" 
d="M245 827v34h220v-34h-220zM366 -14q-64 0 -121 19.5t-98 67t-41 114.5v457l-56 83v8h200v-8l-54 -83v-454q0 -74 53 -115.5t126 -41.5q50 0 86.5 16t55 41.5t26.5 50t8 48.5v455l-60 83v8h172v-8l-60 -83v-448q0 -22 -4.5 -45.5t-20 -54t-40 -54t-69.5 -40t-103 -16.5z
" />
    <glyph glyph-name="umacron" unicode="&#x16b;" horiz-adv-x="559" 
d="M154 552v34h220v-34h-220zM257 -14q-31 0 -60 8t-57 25.5t-45 52.5t-17 83v136q0 58 -7.5 86t-30.5 42l97 48h23v-310q0 -58 26 -93t79 -35q64 0 93.5 36.5t29.5 90.5v135q0 55 -9.5 84t-32.5 44l102 48h22v-381l40 -75v-11h-120v50q-20 -30 -49.5 -47t-83.5 -17z" />
    <glyph glyph-name="Uring" unicode="&#x16e;" horiz-adv-x="711" 
d="M356 799q-27 0 -46.5 19.5t-19.5 46.5t19.5 46.5t46.5 19.5t46.5 -19.5t19.5 -46.5t-19.5 -46.5t-46.5 -19.5zM356 833q14 0 23 9.5t9 22.5t-9 22.5t-23 9.5t-23 -9.5t-9 -22.5t9 -22.5t23 -9.5zM366 -14q-64 0 -121 19.5t-98 67t-41 114.5v457l-56 83v8h200v-8l-54 -83
v-454q0 -74 53 -115.5t126 -41.5q50 0 86.5 16t55 41.5t26.5 50t8 48.5v455l-60 83v8h172v-8l-60 -83v-448q0 -22 -4.5 -45.5t-20 -54t-40 -54t-69.5 -40t-103 -16.5z" />
    <glyph glyph-name="uring" unicode="&#x16f;" horiz-adv-x="559" 
d="M265 524q-27 0 -46.5 19.5t-19.5 46.5t19.5 46.5t46.5 19.5t46.5 -19.5t19.5 -46.5t-19.5 -46.5t-46.5 -19.5zM265 558q13 0 22.5 9t9.5 23t-9.5 23t-22.5 9t-22.5 -9t-9.5 -23t9.5 -23t22.5 -9zM257 -14q-31 0 -60 8t-57 25.5t-45 52.5t-17 83v136q0 58 -7.5 86
t-30.5 42l97 48h23v-310q0 -58 26 -93t79 -35q64 0 93.5 36.5t29.5 90.5v135q0 55 -9.5 84t-32.5 44l102 48h22v-381l40 -75v-11h-120v50q-20 -30 -49.5 -47t-83.5 -17z" />
    <glyph glyph-name="Uhungarumlaut" unicode="&#x170;" horiz-adv-x="711" 
d="M385 793l55 133h100v-6l-140 -127h-15zM263 792l55 133h100v-6l-140 -127h-15zM366 -14q-64 0 -121 19.5t-98 67t-41 114.5v457l-56 83v8h200v-8l-54 -83v-454q0 -74 53 -115.5t126 -41.5q50 0 86.5 16t55 41.5t26.5 50t8 48.5v455l-60 83v8h172v-8l-60 -83v-448
q0 -22 -4.5 -45.5t-20 -54t-40 -54t-69.5 -40t-103 -16.5z" />
    <glyph glyph-name="uhungarumlaut" unicode="&#x171;" horiz-adv-x="559" 
d="M294 518l55 133h100v-6l-140 -127h-15zM172 517l55 133h100v-6l-140 -127h-15zM257 -14q-31 0 -60 8t-57 25.5t-45 52.5t-17 83v136q0 58 -7.5 86t-30.5 42l97 48h23v-310q0 -58 26 -93t79 -35q64 0 93.5 36.5t29.5 90.5v135q0 55 -9.5 84t-32.5 44l102 48h22v-381
l40 -75v-11h-120v50q-20 -30 -49.5 -47t-83.5 -17z" />
    <glyph glyph-name="Uogonek" unicode="&#x172;" horiz-adv-x="711" 
d="M491 735h172v-8l-60 -83v-448q0 -22 -4.5 -45.5t-20 -54t-40 -54t-69.5 -40t-103 -16.5h-5q-44 -38 -44 -89q0 -18 10 -33.5t33 -15.5q34 0 67 39l25 -21q-44 -54 -99 -54q-44 0 -66 20.5t-22 56.5q0 50 59 99q-91 10 -154.5 60t-63.5 139v457l-56 83v8h200v-8l-54 -83
v-454q0 -74 53 -115.5t126 -41.5q50 0 86.5 16t55 41.5t26.5 50t8 48.5v455l-60 83v8z" />
    <glyph glyph-name="uogonek" unicode="&#x173;" horiz-adv-x="559" 
d="M470 86l40 -75v-11h-120v50q-41 -62 -125 -64q-44 -38 -44 -89q0 -18 10 -33.5t33 -15.5q34 0 67 39l25 -21q-44 -54 -99 -54q-44 0 -66 20.5t-22 56.5q0 48 59 99q-62 7 -106 46.5t-44 120.5v136q0 58 -7.5 86t-30.5 42l97 48h23v-310q0 -58 26 -93t79 -35
q64 0 93.5 36.5t29.5 90.5v135q0 55 -9.5 84t-32.5 44l102 48h22v-381z" />
    <glyph glyph-name="Wcircumflex" unicode="&#x174;" horiz-adv-x="930" 
d="M386 804l79 133h97v-6l-161 -127h-15zM306 -14l-235 659l-49 81v9h189v-9l-39 -81l165 -483l106 391l-54 173v9h161v-9l-25 -93l130 -470l158 482l-51 81v9h150v-9l-54 -81l-223 -659h-21l-147 495l-137 -495h-24z" />
    <glyph glyph-name="wcircumflex" unicode="&#x175;" horiz-adv-x="724" 
d="M250 517v6l111 128l111 -128v-6h-40l-70 63l-72 -63h-40zM224 -14l-167 393l-34 70v11h156v-11l-32 -68l111 -268l86 219l-48 117v11h162v-11l-38 -89l93 -247l113 273l-35 63v11h112v-10l-32 -69l-164 -395h-29l-111 288l-112 -288h-31z" />
    <glyph glyph-name="Ycircumflex" unicode="&#x176;" horiz-adv-x="572" 
d="M190 792v6l111 128l111 -128v-6h-40l-70 63l-72 -63h-40zM182 0v9l60 84v253l-220 380v9h199v-9l-48 -81l138 -244l146 243l-56 82v9h151v-9l-220 -363v-270l60 -84v-9h-210z" />
    <glyph glyph-name="ycircumflex" unicode="&#x177;" horiz-adv-x="504" 
d="M168 517v6l111 128l111 -128v-6h-40l-70 63l-72 -63h-40zM150 -210v11l43 61l56 138l-241 449v11h180v-9l-42 -70l146 -283l117 284l-46 68v10h129v-11l-33 -65l-216 -522l36 -62v-10h-129z" />
    <glyph glyph-name="Ydieresis" unicode="&#x178;" horiz-adv-x="572" 
d="M228 809l-55 56l55 57l55 -57zM377 809l-55 56l55 57l55 -57zM182 0v9l60 84v253l-220 380v9h199v-9l-48 -81l138 -244l146 243l-56 82v9h151v-9l-220 -363v-270l60 -84v-9h-210z" />
    <glyph glyph-name="Zacute" unicode="&#x179;" horiz-adv-x="630" 
d="M236 804l79 133h97v-6l-161 -127h-15zM30 0v10l388 699h-245l-129 -127h-14l42 153h463v-9l-390 -700h225q30 0 53.5 10.5t37.5 26t22.5 34.5t11 34.5t1.5 27.5l108 -93q-48 -66 -215 -66h-359z" />
    <glyph glyph-name="zacute" unicode="&#x17a;" horiz-adv-x="473" 
d="M158 529l79 133h97v-6l-161 -127h-15zM31 0v9l274 425h-142l-109 -105h-19l41 131h337v-9l-273 -424h136q43 0 66.5 38.5t21.5 66.5l84 -93q-13 -18 -42.5 -27.5t-51 -10.5t-57.5 -1h-266z" />
    <glyph glyph-name="Zdotaccent" unicode="&#x17b;" horiz-adv-x="630" 
d="M315 809q-23 0 -39.5 16.5t-16.5 39.5t16.5 39.5t39.5 16.5t39.5 -16.5t16.5 -39.5t-16.5 -39.5t-39.5 -16.5zM30 0v10l388 699h-245l-129 -127h-14l42 153h463v-9l-390 -700h225q30 0 53.5 10.5t37.5 26t22.5 34.5t11 34.5t1.5 27.5l108 -93q-48 -66 -215 -66h-359z" />
    <glyph glyph-name="zdotaccent" unicode="&#x17c;" horiz-adv-x="473" 
d="M237 534q-23 0 -39.5 16.5t-16.5 39.5t16.5 39.5t39.5 16.5t39.5 -16.5t16.5 -39.5t-16.5 -39.5t-39.5 -16.5zM31 0v9l274 425h-142l-109 -105h-19l41 131h337v-9l-273 -424h136q43 0 66.5 38.5t21.5 66.5l84 -93q-13 -18 -42.5 -27.5t-51 -10.5t-57.5 -1h-266z" />
    <glyph glyph-name="Zcaron" unicode="&#x17d;" horiz-adv-x="630" 
d="M296 780l-95 122v6h31l74 -57l72 57h33v-6l-95 -122h-20zM30 0v10l388 699h-245l-129 -127h-14l42 153h463v-9l-390 -700h225q30 0 53.5 10.5t37.5 26t22.5 34.5t11 34.5t1.5 27.5l108 -93q-48 -66 -215 -66h-359z" />
    <glyph glyph-name="zcaron" unicode="&#x17e;" horiz-adv-x="473" 
d="M218 524l-95 122v6h33l72 -57l74 57h31v-6l-95 -122h-20zM31 0v9l274 425h-142l-109 -105h-19l41 131h337v-9l-273 -424h136q43 0 66.5 38.5t21.5 66.5l84 -93q-13 -18 -42.5 -27.5t-51 -10.5t-57.5 -1h-266z" />
    <glyph glyph-name="Scommaaccent" unicode="&#x218;" horiz-adv-x="598" 
d="M290 -14q-96 0 -147 45l-71 -31h-12v196h29q8 -42 24.5 -74t38.5 -50t42.5 -29.5t44 -16t34 -5.5t21.5 -1q75 0 126 34t51 100q0 44 -22 77t-57 53.5t-77.5 38t-85.5 37t-78 43.5t-57 64.5t-22 94.5q0 43 14.5 76.5t37 53.5t53 33.5t59 18.5t58.5 5q29 0 58 -5t64 -17
t65 -39t47 -66l-95 -66h-11q20 67 -21 115.5t-113 48.5q-60 0 -100 -33.5t-40 -88.5q0 -53 41.5 -89.5t100.5 -60.5t118 -50.5t100.5 -74.5t41.5 -116q0 -105 -71.5 -163t-188.5 -58zM287 -278q2 14 4 37t-9 69t-41 64l57 55l57 -55l-53 -170h-15z" />
    <glyph glyph-name="scommaaccent" unicode="&#x219;" horiz-adv-x="452" 
d="M230 -14q-72 0 -113 28l-52 -21h-13v135h23q17 -53 56.5 -84t90.5 -31q52 0 78 22.5t26 60.5q0 31 -28.5 54t-69 39.5t-81 34.5t-69 50.5t-28.5 77.5q0 57 49 89.5t119 32.5q138 0 182 -85l-91 -67l-13 9q7 17 7 32q0 33 -22 58t-66 25q-36 0 -59.5 -19t-23.5 -54
q0 -33 29.5 -57t71 -40t83 -34t71 -50t29.5 -76q0 -63 -52.5 -96.5t-133.5 -33.5zM217 -278q2 14 4 37t-9 69t-41 64l57 55l57 -55l-53 -170h-15z" />
    <glyph glyph-name="uni021A" unicode="&#x21a;" horiz-adv-x="646" 
d="M216 0v9l62 84v616h-119l-125 -135h-16l32 161h546l32 -161h-16l-125 135h-119v-616l62 -84v-9h-214zM311 -278q2 14 4 37t-9 69t-41 64l57 55l57 -55l-53 -170h-15z" />
    <glyph glyph-name="uni021B" unicode="&#x21b;" horiz-adv-x="349" 
d="M216 -14q-126 0 -126 118v324h-64v11l128 169h18v-148h139v-32h-139v-332q0 -31 20 -48t49 -17t47 16t24 34l23 -9q-6 -30 -36.5 -58t-82.5 -28zM158 -278q2 14 4 37t-9 69t-41 64l57 55l57 -55l-53 -170h-15z" />
    <glyph glyph-name="circumflex" unicode="&#x2c6;" horiz-adv-x="600" 
d="M54 517v6l111 128l111 -128v-6h-40l-70 63l-72 -63h-40z" />
    <glyph glyph-name="caron" unicode="&#x2c7;" horiz-adv-x="330" 
d="M165 517l-111 128v6h40l72 -63l70 63h40v-6z" />
    <glyph glyph-name="breve" unicode="&#x2d8;" horiz-adv-x="334" 
d="M167 539q-46 0 -76.5 32.5t-30.5 80.5h34q0 -29 20 -48t53 -19t53 19t20 48h34q0 -48 -30.5 -80.5t-76.5 -32.5z" />
    <glyph glyph-name="dotaccent" unicode="&#x2d9;" horiz-adv-x="600" 
d="M116 534q-23 0 -39.5 16.5t-16.5 39.5t16.5 39.5t39.5 16.5t39.5 -16.5t16.5 -39.5t-16.5 -39.5t-39.5 -16.5z" />
    <glyph glyph-name="ring" unicode="&#x2da;" horiz-adv-x="216" 
d="M107 588q-33 0 -56.5 23.5t-23.5 56.5t23.5 56.5t56.5 23.5t56.5 -23.5t23.5 -56.5t-23.5 -56.5t-56.5 -23.5zM107 625q18 0 30.5 12.5t12.5 30.5t-12.5 30.5t-30.5 12.5t-30.5 -12.5t-12.5 -30.5t12.5 -30.5t30.5 -12.5z" />
    <glyph glyph-name="ogonek" unicode="&#x2db;" horiz-adv-x="307" 
d="M148 -188q-44 0 -66 20.5t-22 56.5q0 37 33 73.5t68 54.5h37q-24 -16 -39.5 -28t-31 -37.5t-15.5 -54.5q0 -18 10 -33.5t33 -15.5q34 0 67 39l25 -21q-44 -54 -99 -54z" />
    <glyph glyph-name="tilde" unicode="&#x2dc;" horiz-adv-x="600" 
d="M223 553q-17 0 -47 13.5t-48 13.5q-33 0 -41 -25l-27 13q6 25 25.5 38.5t42.5 13.5q22 0 50 -13t45 -13q15 0 28.5 7t16.5 17l28 -14q-17 -51 -73 -51z" />
    <glyph glyph-name="hungarumlaut" unicode="&#x2dd;" horiz-adv-x="439" 
d="M182 518l55 133h100v-6l-140 -127h-15zM60 517l55 133h100v-6l-140 -127h-15z" />
    <glyph glyph-name="gravecomb" unicode="&#x300;" 
d="M-75 529l-161 127v6h97l79 -133h-15z" />
    <glyph glyph-name="acutecomb" unicode="&#x301;" 
d="M-239 529l79 133h97v-6l-161 -127h-15z" />
    <glyph glyph-name="uni0302" unicode="&#x302;" 
d="M-276 517v6l111 128l111 -128v-6h-40l-70 63l-72 -63h-40z" />
    <glyph glyph-name="tildecomb" unicode="&#x303;" 
d="M-133 553q-18 0 -47.5 13.5t-47.5 13.5q-33 0 -41 -25l-27 13q6 25 25.5 38.5t42.5 13.5q22 0 50 -13t45 -13q15 0 28.5 7t16.5 17l28 -14q-17 -51 -73 -51z" />
    <glyph glyph-name="uni0304" unicode="&#x304;" 
d="M-280 552v34h220v-34h-220z" />
    <glyph glyph-name="uni0306" unicode="&#x306;" 
d="M-167 539q-46 0 -76.5 32.5t-30.5 80.5h34q0 -29 20 -48t53 -19t53 19t20 48h34q0 -48 -30.5 -80.5t-76.5 -32.5z" />
    <glyph glyph-name="uni0307" unicode="&#x307;" 
d="M-116 534q-23 0 -39.5 16.5t-16.5 39.5t16.5 39.5t39.5 16.5t39.5 -16.5t16.5 -39.5t-16.5 -39.5t-39.5 -16.5z" />
    <glyph glyph-name="uni0308" unicode="&#x308;" 
d="M-383 534l-55 56l55 57l55 -57zM-234 534l-55 56l55 57l55 -57z" />
    <glyph glyph-name="uni030A" unicode="&#x30a;" 
d="M-126 524q-27 0 -46.5 19.5t-19.5 46.5t19.5 46.5t46.5 19.5t46.5 -19.5t19.5 -46.5t-19.5 -46.5t-46.5 -19.5zM-126 558q14 0 23 9t9 23t-9 23t-23 9t-23 -9t-9 -23t9 -23t23 -9z" />
    <glyph glyph-name="uni030B" unicode="&#x30b;" 
d="M-215 518l55 133h100v-6l-140 -127h-15zM-337 517l55 133h100v-6l-140 -127h-15z" />
    <glyph glyph-name="uni030C" unicode="&#x30c;" 
d="M-165 517l-111 128v6h40l72 -63l70 63h40v-6z" />
    <glyph glyph-name="uni0312" unicode="&#x312;" 
d="M-114 763q-2 -14 -4 -37t9 -69t41 -64l-57 -55l-57 55l53 170h15z" />
    <glyph glyph-name="uni0326" unicode="&#x326;" 
d="M-121 -278q2 14 4 37t-9 69t-41 64l57 55l57 -55l-53 -170h-15z" />
    <glyph glyph-name="uni0327" unicode="&#x327;" 
d="M-164 -194q-23 0 -43 5l1 17q12 -3 32 -3q55 0 55 44q0 43 -83 52v8l71 84h28l-41 -59q84 -20 84 -76q0 -72 -104 -72z" />
    <glyph glyph-name="uni0328" unicode="&#x328;" 
d="M-159 -188q-44 0 -66 20.5t-22 56.5q0 37 33 73.5t68 54.5h37q-24 -16 -39.5 -28t-31 -37.5t-15.5 -54.5q0 -18 10 -33.5t33 -15.5q34 0 67 39l25 -21q-44 -54 -99 -54z" />
    <glyph glyph-name="uni0335" unicode="&#x335;" 
d="M-282 341v32h224v-32h-224z" />
    <glyph glyph-name="uni0336" unicode="&#x336;" 
d="M-500 341v32h440v-32h-440z" />
    <glyph glyph-name="uni0337" unicode="&#x337;" 
d="M-521 -35l392 531h58l-394 -531h-56z" />
    <glyph glyph-name="uni0338" unicode="&#x338;" 
d="M-714 -29l588 792h66l-594 -792h-60z" />
    <glyph glyph-name="Wgrave" unicode="&#x1e80;" horiz-adv-x="930" 
d="M520 804l-161 127v6h97l79 -133h-15zM306 -14l-235 659l-49 81v9h189v-9l-39 -81l165 -483l106 391l-54 173v9h161v-9l-25 -93l130 -470l158 482l-51 81v9h150v-9l-54 -81l-223 -659h-21l-147 495l-137 -495h-24z" />
    <glyph glyph-name="wgrave" unicode="&#x1e81;" horiz-adv-x="724" 
d="M417 529l-161 127v6h97l79 -133h-15zM224 -14l-167 393l-34 70v11h156v-11l-32 -68l111 -268l86 219l-48 117v11h162v-11l-38 -89l93 -247l113 273l-35 63v11h112v-10l-32 -69l-164 -395h-29l-111 288l-112 -288h-31z" />
    <glyph glyph-name="Wacute" unicode="&#x1e82;" horiz-adv-x="930" 
d="M386 804l79 133h97v-6l-161 -127h-15zM306 -14l-235 659l-49 81v9h189v-9l-39 -81l165 -483l106 391l-54 173v9h161v-9l-25 -93l130 -470l158 482l-51 81v9h150v-9l-54 -81l-223 -659h-21l-147 495l-137 -495h-24z" />
    <glyph glyph-name="wacute" unicode="&#x1e83;" horiz-adv-x="724" 
d="M283 529l79 133h97v-6l-161 -127h-15zM224 -14l-167 393l-34 70v11h156v-11l-32 -68l111 -268l86 219l-48 117v11h162v-11l-38 -89l93 -247l113 273l-35 63v11h112v-10l-32 -69l-164 -395h-29l-111 288l-112 -288h-31z" />
    <glyph glyph-name="Wdieresis" unicode="&#x1e84;" horiz-adv-x="930" 
d="M390 809l-55 56l55 57l55 -57zM539 809l-55 56l55 57l55 -57zM306 -14l-235 659l-49 81v9h189v-9l-39 -81l165 -483l106 391l-54 173v9h161v-9l-25 -93l130 -470l158 482l-51 81v9h150v-9l-54 -81l-223 -659h-21l-147 495l-137 -495h-24z" />
    <glyph glyph-name="wdieresis" unicode="&#x1e85;" horiz-adv-x="724" 
d="M287 534l-55 56l55 57l55 -57zM436 534l-55 56l55 57l55 -57zM224 -14l-167 393l-34 70v11h156v-11l-32 -68l111 -268l86 219l-48 117v11h162v-11l-38 -89l93 -247l113 273l-35 63v11h112v-10l-32 -69l-164 -395h-29l-111 288l-112 -288h-31z" />
    <glyph glyph-name="Ygrave" unicode="&#x1ef2;" horiz-adv-x="572" 
d="M353 804l-161 127v6h97l79 -133h-15zM182 0v9l60 84v253l-220 380v9h199v-9l-48 -81l138 -244l146 243l-56 82v9h151v-9l-220 -363v-270l60 -84v-9h-210z" />
    <glyph glyph-name="ygrave" unicode="&#x1ef3;" horiz-adv-x="504" 
d="M331 529l-161 127v6h97l79 -133h-15zM150 -210v11l43 61l56 138l-241 449v11h180v-9l-42 -70l146 -283l117 284l-46 68v10h129v-11l-33 -65l-216 -522l36 -62v-10h-129z" />
    <glyph glyph-name="endash" unicode="&#x2013;" horiz-adv-x="530" 
d="M40 252v43h450v-43h-450z" />
    <glyph glyph-name="emdash" unicode="&#x2014;" horiz-adv-x="793" 
d="M40 252v43h713v-43h-713z" />
    <glyph glyph-name="quoteleft" unicode="&#x2018;" horiz-adv-x="192" 
d="M97 476l-65 67l61 205h16q-1 -6 -2 -17t-1 -40.5t4 -54.5t17.5 -52t34.5 -41z" />
    <glyph glyph-name="quoteright" unicode="&#x2019;" horiz-adv-x="184" 
d="M80 476q1 6 2 17t1 40.5t-4 54.5t-17.5 52t-34.5 41l65 67l65 -67l-61 -205h-16z" />
    <glyph glyph-name="quotesinglbase" unicode="&#x201a;" horiz-adv-x="193" 
d="M86 -162q1 6 2 17t1 40.5t-4 54.5t-17.5 52t-34.5 41l65 67l65 -67l-61 -205h-16z" />
    <glyph glyph-name="quotedblleft" unicode="&#x201c;" horiz-adv-x="330" 
d="M95 476l-65 67l61 205h16q-1 -6 -2 -17t-1 -40.5t4 -54.5t17.5 -52t34.5 -41zM239 476l-65 67l61 205h16q-1 -6 -2 -17t-1 -40.5t4 -54.5t17.5 -52t34.5 -41z" />
    <glyph glyph-name="quotedblright" unicode="&#x201d;" horiz-adv-x="335" 
d="M83 476q1 6 2 17t1 40.5t-4 54.5t-17.5 52t-34.5 41l65 67l65 -67l-61 -205h-16zM227 476q1 6 2 17t1 40.5t-4 54.5t-17.5 52t-34.5 41l65 67l65 -67l-61 -205h-16z" />
    <glyph glyph-name="quotedblbase" unicode="&#x201e;" horiz-adv-x="333" 
d="M81 -162q1 6 2 17t1 40.5t-4 54.5t-17.5 52t-34.5 41l65 67l65 -67l-61 -205h-16zM228 -162q1 6 2 17t1 40.5t-4 54.5t-17.5 52t-34.5 41l65 67l65 -67l-61 -205h-16z" />
    <glyph glyph-name="bullet" unicode="&#x2022;" horiz-adv-x="257" 
d="M48 351l24 53l56 30l54 -30l27 -53l-27 -55l-54 -28l-56 28z" />
    <glyph glyph-name="ellipsis" unicode="&#x2026;" horiz-adv-x="609" 
d="M105 -17l-65 66l65 67l65 -67zM306 -17l-65 66l65 67l65 -67zM507 -17l-65 66l65 67l65 -67z" />
    <glyph glyph-name="perthousand" unicode="&#x2030;" horiz-adv-x="988" 
d="M191 454q-42 0 -79.5 33t-37.5 104t37.5 104t79.5 33q44 0 81.5 -33t37.5 -104t-37.5 -104t-81.5 -33zM84 0l481 716h63l-481 -716h-63zM191 483q29 0 46 27.5t17 79.5q0 53 -17 80.5t-46 27.5q-27 0 -44 -28t-16 -80q-1 -52 16 -79.5t44 -27.5zM531 -8q-42 0 -79.5 33
t-37.5 104t37.5 104t79.5 33q44 0 81.5 -33t37.5 -104t-37.5 -104t-81.5 -33zM839 -8q-42 0 -79.5 33t-37.5 104t37.5 104t79.5 33q44 0 81.5 -33t37.5 -104t-37.5 -104t-81.5 -33zM531 21q29 0 46 27.5t17 79.5q0 53 -17 80.5t-46 27.5q-27 0 -44 -28t-16 -80
q-1 -52 16 -79.5t44 -27.5zM839 21q29 0 46 27.5t17 79.5q0 53 -17 80.5t-46 27.5q-27 0 -44 -28t-16 -80q-1 -52 16 -79.5t44 -27.5z" />
    <glyph glyph-name="Euro" unicode="&#x20ac;" horiz-adv-x="678" 
d="M408 -14q-126 0 -210 76t-107 208h-54l13 50h35q-2 15 -2 48v27h-47l14 52h38q20 140 102 222.5t202 82.5q149 0 236 -114l-61 -92q-2 28 -12.5 57t-30 58t-55.5 47t-83 18q-49 0 -88 -19.5t-61.5 -48.5t-38 -69t-22 -73t-8.5 -69h281l-14 -52h-268q2 -51 5 -75h239
l-18 -50h-212q22 -112 87.5 -171t152.5 -59q122 0 183 89l22 -10q-33 -65 -90 -99t-128 -34z" />
    <glyph glyph-name="uni2116" unicode="&#x2116;" horiz-adv-x="1140" 
d="M582 -6l-434 596v-497l62 -84v-9h-168v9l62 84v549l-62 84v9h113l419 -566v475l-60 82v9h164v-9l-60 -82v-650h-36zM886 247q-30 0 -60.5 11t-61.5 34t-50.5 67t-19.5 103t19.5 103t50.5 67t61.5 34t60.5 11q31 0 63 -11t63.5 -34t51 -67t19.5 -103t-19.5 -103t-51 -67
t-63.5 -34t-63 -11zM886 279q50 0 79 46.5t29 135.5q0 91 -29 138t-79 47q-46 0 -74.5 -47.5t-27.5 -137.5q-1 -89 27.5 -135.5t74.5 -46.5zM697 130v42h379v-42h-379z" />
    <glyph glyph-name="arrowleft" unicode="&#x2190;" horiz-adv-x="1065" 
d="M1025 295v-43h-806l83 -147l-14 -9q-63 76 -120 110.5t-128 41.5v51q71 7 128 41.5t120 110.5l14 -9l-83 -147h806z" />
    <glyph glyph-name="arrowup" unicode="&#x2191;" horiz-adv-x="515" 
d="M435 501l-9 -14l-147 83v-584h-43v584l-147 -83l-9 14q76 63 110.5 120t41.5 128h51q7 -71 41.5 -128t110.5 -120z" />
    <glyph glyph-name="arrowright" unicode="&#x2192;" horiz-adv-x="1065" 
d="M777 451q63 -76 120 -110.5t128 -41.5v-51q-71 -7 -128 -41.5t-120 -110.5l-14 9l83 147h-806v43h806l-83 147z" />
    <glyph glyph-name="arrowdown" unicode="&#x2193;" horiz-adv-x="515" 
d="M426 262l9 -14q-76 -63 -110.5 -120t-41.5 -128h-51q-7 71 -41.5 128t-110.5 120l9 14l147 -83v584h43v-584z" />
    <glyph glyph-name="arrowboth" unicode="&#x2194;" horiz-adv-x="1065" 
d="M777 451q63 -76 120 -110.5t128 -41.5v-51q-71 -7 -128 -41.5t-120 -110.5l-14 9l83 147h-627l83 -147l-14 -9q-63 76 -120 110.5t-128 41.5v51q71 7 128 41.5t120 110.5l14 -9l-83 -147h627l-83 147z" />
    <glyph glyph-name="arrowupdn" unicode="&#x2195;" horiz-adv-x="515" 
d="M279 165l147 83l9 -14q-76 -63 -110.5 -120t-41.5 -128h-51q-7 71 -41.5 128t-110.5 120l9 14l147 -83v405l-147 -83l-9 14q76 63 110.5 120t41.5 128h51q7 -71 41.5 -128t110.5 -120l-9 -14l-147 83v-405z" />
    <glyph glyph-name="approxequal" unicode="&#x2248;" horiz-adv-x="492" 
d="M21 236q0 5 1.5 14.5t9.5 32.5t22 41t43 32.5t68 14.5q40 0 70 -18.5t56 -36.5t56 -18q40 0 65.5 19t31.5 37l6 19h21q0 -5 -1.5 -14.5t-9.5 -32.5t-22 -41t-43 -32.5t-68 -14.5q-31 0 -57 11.5t-41 25t-37 25t-46 11.5q-25 0 -45 -7.5t-30.5 -18.5t-17 -22.5t-8.5 -18.5
l-2 -8h-22zM21 91q0 5 1.5 14.5t9.5 32.5t22 41t43 32.5t68 14.5q32 0 58 -11.5t41 -25t37 -25t46 -11.5q40 0 65.5 18.5t31.5 37.5l6 19h21q0 -5 -1.5 -14.5t-9.5 -32.5t-22 -41t-43 -32.5t-68 -14.5t-69.5 18.5t-56.5 36.5t-55 18q-25 0 -45 -7.5t-30.5 -19t-17 -22.5
t-8.5 -19l-2 -7h-22z" />
    <glyph glyph-name="lessequal" unicode="&#x2264;" horiz-adv-x="410" 
d="M375 96l-348 248v17l348 248v-77l-219 -180l219 -173v-83zM27 0v45h348v-45h-348z" />
    <glyph glyph-name="greaterequal" unicode="&#x2265;" horiz-adv-x="410" 
d="M27 96v83l219 173l-219 180v77l348 -248v-17zM27 0v45h348v-45h-348z" />
    <glyph glyph-name="uni25FC" unicode="&#x25fc;" horiz-adv-x="460" 
d="M0 460h460v-460h-460v460z" />
    <glyph glyph-name="o.alt" horiz-adv-x="597" 
d="M298 474q100 0 175.5 -64t75.5 -174q0 -115 -73.5 -182.5t-169.5 -67.5q-110 0 -184 65t-74 179q0 113 75.5 178.5t174.5 65.5zM315 12q63 0 100 56.5t37 152.5q0 91 -38 153q-28 43 -77 43q-39 0 -60 -24.5t-21 -66.5q0 -33 20 -74l-60 -33q-17 35 -17 75q0 58 36.5 100
t94.5 42q24 0 45 -8q-26 20 -77 20q-72 0 -112.5 -54.5t-40.5 -148.5q0 -104 47 -168.5t123 -64.5z" />
    <glyph glyph-name="O.alt" horiz-adv-x="855" 
d="M427 752q171 0 277.5 -108t106.5 -276q0 -165 -107.5 -274t-276.5 -109q-171 0 -277 108.5t-106 274.5q0 168 106 276t277 108zM443 12q120 0 192.5 84.5t72.5 219.5q0 156 -79 274q-39 53 -79 73.5t-93 20.5q-68 0 -112 -47.5t-44 -121.5q0 -15 1.5 -29t5.5 -26l7 -21
t9 -18.5t9 -14t9 -13t7 -9.5l-85 -63q-44 70 -44 152q0 97 59.5 166t160.5 69q60 0 118 -25q-56 41 -140 41q-129 0 -200.5 -86t-71.5 -219q0 -165 87.5 -286t209.5 -121z" />
    <glyph glyph-name="zero.zero" horiz-adv-x="711" 
d="M354 749q39 0 78.5 -11t81.5 -39t74 -70t52.5 -111t20.5 -154q0 -84 -21 -151.5t-53.5 -109t-74 -69t-80 -38.5t-74.5 -11q-40 0 -79.5 11t-81.5 39t-74 70t-52.5 110.5t-20.5 154.5q0 84 21 151.5t53.5 109t74 69t80 38.5t75.5 11zM153 399q0 -181 59 -283l251 554
q-48 48 -110 48q-95 0 -147.5 -84t-52.5 -235zM362 17q94 0 145 84.5t51 237.5q0 193 -68 297l-252 -558q52 -61 124 -61z" />
    <glyph glyph-name="a.alt" horiz-adv-x="594" 
d="M278 -14q-102 0 -168 67.5t-66 175.5q0 109 66.5 177t172.5 68q87 0 139 -49l59 42h18v-380l54 -76v-11h-136v31q-57 -45 -139 -45zM294 42q81 0 124 50v176q-37 -21 -78 -21q-65 0 -105 30.5t-40 78.5q0 31 18 53t47 30q-61 -7 -97 -57t-36 -129q0 -94 46.5 -152.5
t120.5 -58.5zM329 298q53 0 89 39q-1 52 -32 75t-63 23q-36 0 -56 -18t-20 -48q0 -27 19 -48.5t63 -22.5z" />
    <glyph glyph-name="a.ss01" horiz-adv-x="602" 
d="M499 87l54 -76v-11h-136v31q-58 -45 -139 -45q-102 0 -168 67.5t-66 175.5q0 109 66.5 177t172.5 68q87 0 141 -51l57 44h18v-380zM294 42q81 0 124 50v293q-50 55 -125 55q-74 0 -120 -56t-46 -148q0 -82 47 -138t120 -56z" />
    <glyph glyph-name="i.loclTRK" horiz-adv-x="264" 
d="M132 534q-23 0 -39.5 16.5t-16.5 39.5t16.5 39.5t39.5 16.5t39.5 -16.5t16.5 -39.5t-16.5 -39.5t-39.5 -16.5zM46 0v9l51 77v200q0 96 -50 129l109 59h23v-388l50 -77v-9h-183z" />
    </font>
</defs>
</svg>
